Oops.. Este post tiene los enlaces eliminados!

Identi revisa las denuncias de los usuarios en busca de enlaces eliminados que no dejan descargar los archivos, este mensaje te informa que este post que estas viendo tiene los enlaces eliminados.

Usa el Buscador

Por favor, te recomendamos que uses el buscador para encontrar más alternativas.

Juana Barraza La Mataviejitas PL

  • Categoría: Reciclaje
  • Publicado hace más de 5 años






Juana Barraza (nacido en 1956) es un mexicano luchador profesional y asesino en serie conocido como La Mataviejitas (Sp. "The Killer Old Lady") condenado a 759 años de cárcel por haber matado a once mujeres de edad avanzada. El primer asesinato atribuido a Mataviejitas se ha fechado vario a finales de 1990 ya una destrucción específica, el 17 de noviembre de 2003. [ 3 ] Las autoridades y la prensa han dado diversas estimaciones sobre el número total de víctimas del asesino, con totales estimadas entre 24 y 49 muertes. 






General

Format                           : MPEG-4

Format profile                   : Base Media / Version 2

Codec ID                         : mp42

File size                        : 245 MiB

Duration                         : 42mn 38s

Overall bit rate                 : 802 Kbps

Encoded date                     : UTC 2012-10-14 20:40:42

Tagged date                      : UTC 2012-10-14 20:41:27

Writing application              : mp4creator 1.6.1d


Video

ID                               : 1

Format                           : MPEG-4 Visual

Format profile                   : [email protected]

Format settings, BVOP            : No

Format settings, QPel            : No

Format settings, GMC             : No warppoints

Format settings, Matrix          : Default (H.263)

Codec ID                         : 20

Duration                         : 42mn 38s

Bit rate mode                    : Variable

Bit rate                         : 674 Kbps

Maximum bit rate                 : 2 672 Kbps

Width                            : 512 pixels

Height                           : 288 pixels

Display aspect ratio             : 16:9

Frame rate mode                  : Variable

Frame rate                       : 29.970 fps

Minimum frame rate               : 29.960 fps

Maximum frame rate               : 29.970 fps

Color space                      : YUV

Chroma subsampling               : 4:2:0

Bit depth                        : 8 bits

Scan type                        : Progressive

Compression mode                 : Lossy

Bits/(Pixel*Frame)               : 0.152

Stream size                      : 206 MiB (84%)

Encoded date                     : UTC 2012-10-14 20:40:42

Tagged date                      : UTC 2012-10-14 20:41:23


Audio

ID                               : 2

Format                           : AAC

Format/Info                      : Advanced Audio Codec

Format profile                   : LC

Codec ID                         : 40

Duration                         : 42mn 38s

Bit rate mode                    : Variable

Bit rate                         : 126 Kbps

Maximum bit rate                 : 147 Kbps

Channel(s)                       : 2 channels

Channel positions                : Front: L R

Sampling rate                    : 44.1 KHz

Compression mode                 : Lossy

Stream size                      : 38.3 MiB (16%)

Encoded date                     : UTC 2012-10-14 20:41:26

Tagged date                      : UTC 2012-10-14 20:41:27












seguirme si les gustaron las minas Seguro Que si




Nosotras seguimos a RAFADETH  porque tu no?





descargar peliculas - descargar programas
5 Puntos Score: 5/10
Visitas: 1519 Favoritos: 1
Ver los usuarios que votaron...
3 Comentarios Juana Barraza La Mataviejitas PL
@Marianoaxl buena man alrato mas noche si gustas platicamos sobre un asunto importante mientras me voy gracias ya sabes s k ip 3
llego tarde links caidos
Para dejar un comentario Registrate! o.. eres ya usuario? Accede!
Facebook Identi