Swordfish: Acceso autorizado [Latino] [Mi Subida]













Sinopsis


Existe un mundo dentro de nuestro mundo. un mundo más allá de lo que llamamos ciberespacio. Un mundo protegido por firewalls, contraseñas y los más avanzados sistemas de seguridad. En este mundo ocultamos nuestros secretos más íntimos, nuestra información más comprometedora y, por supuesto, mucho dinero. Este es el mundo de Operación Swordfish. Gabriel Shear es una carismático y peligroso espía que necesita entrar en ese mundo. Si lo consigue, le esperan miles de millones de fondos públicos ilegales. Sin embargo, para robar el dinero necesitará a un "superhacker", alguien cuyo talento haga que incluso los sistemas de seguridad más sofisticados del mundo parezca un juego de niños. Ahí es donde entra Stanley Jobson, uno de los dos mejores piratas informáticos del plantea. Vive sin dinero, sólo y sin lo único que da sentido a su vida, su hija Holly, a la que perdió en un divorcio. Gabriel y su hermosa socia Ginger atraen a Stanley a su mundo clandestino, tentándole con lo único que no puede tener: la posibilidad de reunirse con Holly y empezar una nueva vida.


Información y Ficha Técnica

General
Format                                   : MPEG-4
Format profile                           : Base Media
Codec ID                                 : isom
File size                                : 580 MiB
Duration                                 : 1h 38mn
Overall bit rate mode                    : Variable
Overall bit rate                         : 822 Kbps

Video
ID                                       : 1
Format                                   : AVC
Format/Info                              : Advanced Video Codec
Format profile                           : [email protected]
Format settings, CABAC                   : Yes
Format settings, ReFrames                : 2 frames
Codec ID                                 : avc1
Codec ID/Info                            : Advanced Video Coding
Duration                                 : 1h 38mn
Duration_LastFrame                       : 83ms
Bit rate                                 : 768 Kbps
Maximum bit rate                         : 4 504 Kbps
Width                                    : 1 280 pixels
Height                                   : 720 pixels
Display aspect ratio                     : 2.35:1
Frame rate mode                          : Constant
Frame rate                               : 23.976 fps
Color space                              : YUV
Chroma subsampling                       : 4:2:0
Bit depth                                : 8 bits
Scan type                                : Progressive
Bits/(Pixel*Frame)                       : 0.035
Stream size                              : 538 MiB (93%)

Audio
ID                                       : 2
Format                                   : MPEG Audio
Format version                           : Version 2
Format profile                           : Layer 3
Mode                                     : Joint stereo
Mode extension                           : MS Stereo
Codec ID                                 : 69
Duration                                 : 1h 38mn
Bit rate mode                            : Variable
Bit rate                                 : 53.9 Kbps
Minimum bit rate                         : 8 000 bps
Maximum bit rate                         : 78.0 Kbps
Channel(s)                               : 2 channels
Sampling rate                            : 24.0 KHz
Compression mode                         : Lossy
Stream size                              : 38.1 MiB (7%)
Writing library                          : LAME3.99
















Zippyshare

  
Putlocker

 



www.1d3n71.l1/41173rm4n











El mejor reproductor para ver tus películas en alta calidad



Swordfish: Acceso autorizado [Latino] [Mi Subida]
30 Puntos Score: 7.5/10
Visitas: 8304 Favoritos: 10
Ver los usuarios que votaron...
26 Comentarios Swordfish: Acceso autorizado [Latino] [Mi Subida]
gracias por que esta pelicula recuerdo que esta muy biena y quiero verla de nuevo pero puedes checar el link numero 2, lo estoy tratando de descargar directo y al parecer no anda correctamente.
@jack1985 gracias, disfruta la pelicula
@venenumm el link anda bien, revisado , no puedo editar el post por el mantenimiento, pero si quieres te dejo los mirrors en PL
Saludos  
Ufff que pedazo de pelicula que nos trajste , de lo mejor que vi de Travolta, que bueno lo que haces , porque eso de poner la peli de moda esta gastado, reitero ya la vi hace a?
@Luqhy Gracias por pasar, no me gusta aportar cosas repetidas o lleno de peliculas como spiderman,lincon,mib3 o los vengadores ???    quizas asi tendria mas puntos, pero como no me alimento de ellos, con esto esta bien  
esta peli no es tan buena, pero vale la pena por ver los atributos de halle berry    
saludos y que la disfrutes  
Upps eso de   --esta peli no es tan buena-- no es un exceso de honestidad ?? para mi es una de las mejores actuaciones de travolta , despues de Mentes brillantes (creo que se llamaba asi) , y ahora yo voy a ser sincero ,despues de comentar vi los enlaces para ponerlos a mipony y me mataste con el servidor , las descargas no son continuables , y para mi es imposible bajarlos ,la coneccion que tengo hace una pausa cada 93 Mb de trafico (claro.ar garcas) tanto bajando como subiendo , Me quedo con las ganas , Y si, la morocha esta muy buena ,de todas maneras Gracias por tu esfuerzo en arrimarnos esto  
@Luqhy jajaja soy demasiado honesto   , tengo los enlaces en putlocker por si los quieres  
me avisas para envi?
Ni se te ocurra editar el post por esta pelotudes , si tenes ganas mandamelos por mp los de PL ,creo que recibir mp puedo , disculpa la molestia . Gracias
@Luqhy jajaja si igual pensaba editarlo pero no pude   por el mantenimiento, en seguida te envio los que tengo y remotea remotea !!! jajaja
saludos  
Epa !! que velocidad !! gracias , ya lo tengo a Mipony trabajando , uno de los motivos que siempre sostengo para seguir por aca es que hay user excelentes (tambien muchos soretes , pero son los menos, aunque pisan fuerte)
 Saludos y decirte gracias de vuelta ya es medio redundante , No leemos  
MUY BUEN APORTE
GRACIAS POR COMPARTIR
@HUGUIN85 Gracias por pasar a mi post sin poner esos gif tan pesados    
saludos  
Cita Allterman: Mostrar
TU SABES QUE ESOS GIFS SON PARA LOS POST QUE SE LO MERECEN
Muy buena peli, no se ve mucho por aca. Gracias +5  
@_elteban_  Gracias por el apoyo   como vi que no estaba lo hice jajaja  
saludos  
..haciendo cruces entre ambas opciones parece que bajan todos

Thanks!

 
@DonatoM si olvide mencionar que son intercambiables  
buen post pero la parte3 esta rota podrias arreglarla
podrias resubir la parte 3? gracias!!
subiras la parte 3?
@Allterman Gracias amigo, una pregunta, estan todas las partes ?
links 3 y 4 caidos...
Para dejar un comentario Registrate! o.. eres ya usuario? Accede!