Aileen Wuornos La Protituta homicida 2S





Aileen Carol Wuornos (febrero 29, 1956 a octubre 9, 2002) era un americano asesino en serie que mató a siete hombres en Florida en 1989 y 1990. Wuornos afirmó que sus víctimas habían sea violado o intentado violación de ella mientras ella estaba trabajando como prostituta , y que todos los asesinatos fueron cometidos en defensa propia . Fue declarado culpable y condenado a muerte para siete de los asesinatos y fue ejecutado por el Estado de Florida por inyección letal el 9 de octubre de 2002




General

Format                           : MPEG-4

Format profile                   : Base Media / Version 2

Codec ID                         : mp42

File size                        : 214 MiB

Duration                         : 44mn 4s

Overall bit rate                 : 680 Kbps

Encoded date                     : UTC 2012-10-12 04:52:44

Tagged date                      : UTC 2012-10-12 04:53:11

Writing application              : mp4creator 1.6.1d


Video

ID                               : 1

Format                           : AVC

Format/Info                      : Advanced Video Codec

Format profile                   : [email protected]

Format settings, CABAC           : No

Format settings, ReFrames        : 1 frame

Codec ID                         : avc1

Codec ID/Info                    : Advanced Video Coding

Duration                         : 44mn 4s

Bit rate mode                    : Variable

Bit rate                         : 508 Kbps

Width                            : 576 pixels

Height                           : 368 pixels

Original height                  : 360 pixels

Display aspect ratio             : 1.565

Original display aspect ratio    : 1.600

Frame rate mode                  : Constant

Frame rate                       : 25.000 fps

Color space                      : YUV

Chroma subsampling               : 4:2:0

Bit depth                        : 8 bits

Scan type                        : Progressive

Bits/(Pixel*Frame)               : 0.096

Stream size                      : 160 MiB (75%)

Encoded date                     : UTC 2012-10-12 04:52:44

Tagged date                      : UTC 2012-10-12 04:53:04


Audio

ID                               : 2

Format                           : AAC

Format/Info                      : Advanced Audio Codec

Format profile                   : LC

Codec ID                         : 40

Duration                         : 44mn 3s

Bit rate mode                    : Variable

Bit rate                         : 170 Kbps

Maximum bit rate                 : 228 Kbps

Channel(s)                       : 2 channels

Channel positions                : Front: L R

Sampling rate                    : 44.1 KHz

Compression mode                 : Lossy

Stream size                      : 53.6 MiB (25%)

Encoded date                     : UTC 2012-10-12 04:53:08

Tagged date                      : UTC 2012-10-12 04:53:11














seguirme si les gustaron las minas Seguro Que si







Nosotras seguimos a RAFADETH  porque tu no?





Aileen Wuornos La Protituta homicida 2S
10 Puntos Score: 5/10
Visitas: 1907 Favoritos: 2
Ver los usuarios que votaron...
6 Comentarios Aileen Wuornos La Protituta homicida 2S
LA PELICULA "MONSTER" QUE TRATA SOBRE ELLA ME GUSTO, EXCELENTE PAPEL EL DE CHARLIZE THERON...
Me han recomendado el documental, y encontre muchos, pero creo que este no lo vi ^^^Gracias.
Hola el film tiene subtitulos?
@Rousis  audio LATINO gracias por pasar
Veo que te volvieron las ganas de asesinar...
Si yo vi  "MONSTER"  ahora veremos esta GRACIAS por compartir    
Para dejar un comentario Registrate! o.. eres ya usuario? Accede!