Oops.. Este post tiene los enlaces eliminados!

Identi revisa las denuncias de los usuarios en busca de enlaces eliminados que no dejan descargar los archivos, este mensaje te informa que este post que estas viendo tiene los enlaces eliminados.

Usa el Buscador

Por favor, te recomendamos que uses el buscador para encontrar más alternativas.

The Legendary Guitar of Jason Becker Dvd Rip 2S

  • Categoría: Reciclaje
  • Publicado hace más de 4 años





Jason Eli Becker (nacido el 22 de julio 1969) es un estadounidense de metal neo-clásico guitarrista y compositor. A la edad de 16 años, se convirtió en parte del Mike Varney duo-producido Cacophony con su amigo Marty Friedman . Lanzaron Speed ??Metal Symphony en 1987 y Go Off! en 1988. Cacophony se separó en 1989 y Becker empezó a trabajar en solitario, después de haber lanzado su primer álbum Perpetual Burn en 1988. Más tarde se unió a David Lee Roth banda 's y grabó un álbum con él. Sin embargo, el éxito de Becker se vio obstaculizada por su entonces diagnosticaron esclerosis lateral amiotrófica (enfermedad de Lou Gehrig) y se le dio tres a cinco años de vida. En 1996, Becker finalmente perdió la capacidad de hablar y ahora se comunica con los ojos a través de un sistema desarrollado por su padre. A pesar de su discapacidad, continúa componiendo mediante el uso de una computadora y desde entonces ha publicado Collection , "lo mejor de" un álbum de sus canciones favoritas y tres canciones nuevas







Considerado como un guitarrista virtuoso y uno de los mejores jugadores de su tiempo, Jason Becker estudió las obras de violinista Niccolò Paganini y era un compañero de juego con Marty Friedman. Más tarde se organizó Caprice quinto de Paganini , que lo realiza en un vídeo de la guitarra de instrucción. Composiciones de Becker incluyen a menudo escalar de alta velocidad y pasajes de arpegio, ambos de los cuales son marcas comerciales de su " fragmento "estilo de tocar la guitarra. A menudo, la incorporación de técnicas avanzadas, como la cosecha del barrido, recolección de suplente, acentuando armónico artificial, y aprovechando, Él fue uno de los líderes del campo durante la técnica tendencia metal guitarra shred 'y neo-clásico de mediados a finales de los ochenta y todavía es respetado y honrado por sus colegas músicos hoy. La canción Serrana que aparece en el álbum perspectiva , es un ejemplo de sus habilidades para la cosecha del barrido. [5] Él demostró la secuencia de arpegio durante una clínica en el Instituto de Música de Atlanta . Un video de este apareció por primera vez en su Hot Licks vídeo de la guitarra de instrucción.









En 2008 trabajó con guitarras Paradise Becker para diseñar una guitarra Jason Becker firma. El diseño se basa en el Peavey con el número de color traste incrustaciones . Las características incluyen un aliso cuerpo de arce mástil de acero de 2 vías tipo de alma , arce 16 "radio de diapasón de 24 trastes jumbo delgados con el número de colores traste incrustaciones de marcadores, negro Floyd Rose flotante Style Pro Tremolo Floyd Rose con parada Tremolo, Sperzel satén rojo sintonizadores , 14 grados de inclinación del cabezal con el logo Paradise negro y trémolo a juego y placas electrónicas Las pastillas son. DiMarzio pickups, un PAF Pro-Custom en el cuello de color amarillo y rojo, una DP116 HS-2 en el color verde medio y un Tone Zone-Custom en el puente de color rosa y azul. Estas pastillas de colores complementar las incrustaciones de color y parecen dar a la guitarra un arco iris efecto. También hay una red de 5 posiciones y púrpura 1-11 perilla de volumen.




En 2012, Carvin Becker trabajó con el diseño de una guitarra Jason Becker tributo que sigue el modelo de la original serie DC-guitarra que usó hacia el final de su carrera. La guitarra cuenta con un cuerpo de aliso con tapa de arce flameado, mástil de arce con un diapasón de arce flameado, un Floyd Rose tremolo Pro, trastes jumbo, dos humbuckers, electrónica activa, y viene de serie con un acabado azul transparente.





General


Format profile                   : Base Media / Version 2
Codec ID                         : mp42
File size                        : 449 MiB
Duration                         : 1h 31mn
Overall bit rate                 : 687 Kbps
Encoded date                     : UTC 2012-10-23 17:43:21
Tagged date                      : UTC 2012-10-23 17:43:57
Writing application              : mp4creator 1.6.1d

Video
ID                               : 1
Format                           : AVC
Format/Info                      : Advanced Video Codec
Format profile                   : [email protected]
Format settings, CABAC           : No
Format settings, ReFrames        : 1 frame
Codec ID                         : avc1
Codec ID/Info                    : Advanced Video Coding
Duration                         : 1h 31mn
Bit rate mode                    : Variable
Bit rate                         : 505 Kbps
Width                            : 480 pixels
Height                           : 368 pixels
Original height                  : 360 pixels
Display aspect ratio             : 4:3
Original display aspect ratio    : 4:3
Frame rate mode                  : Constant
Frame rate                       : 25.000 fps
Color space                      : YUV
Chroma subsampling               : 4:2:0
Bit depth                        : 8 bits
Scan type                        : Progressive
Bits/(Pixel*Frame)               : 0.114
Stream size                      : 330 MiB (74%)
Encoded date                     : UTC 2012-10-23 17:43:21
Tagged date                      : UTC 2012-10-23 17:43:47

Audio
ID                               : 2
Format                           : AAC
Format/Info                      : Advanced Audio Codec
Format profile                   : LC
Codec ID                         : 40
Duration                         : 1h 31mn
Bit rate mode                    : Variable
Bit rate                         : 180 Kbps
Maximum bit rate                 : 220 Kbps
Channel(s)                       : 2 channels
Channel positions                : Front: L R
Sampling rate                    : 44.1 KHz
Compression mode                 : Lossy
Stream size                      : 117 MiB (26%)
Encoded date                     : UTC 2012-10-23 17:43:54
Tagged date                      : UTC 2012-10-23 17:43:57



 Buenas muy buenas por motivos de falta de servidores de calidad re subo este Dvd ahora Rip el motivo es porque es muy difícil subir ya cualquier cosa esto en mi caso espero valoren el esfuerzo y también el Rip y se que antes lo subi Full  ya que muchos creen que es mejor un full y lo es  pero el ripear en si es fácil pero lleva también tiempo  no desvaloren el esfuerzo y mínimo si pasan comenten el ripeo y subida también cuesta trabajo y tiempo mucho tiempo hasta luego 









seguirme si les gustaron las minas Seguro Que si



Nosotras seguimos a RAFADETH  porque tu no?


The Legendary Guitar of Jason Becker Dvd Rip 2S
15 Puntos Score: 7.5/10
Visitas: 689 Favoritos: 0
Ver los usuarios que votaron...
7 Comentarios The Legendary Guitar of Jason Becker Dvd Rip 2S
Que buen post Rafa... estos si son rips livianos y se ven bien, no como los que dicen que un rip es de 2.2 gbs, a favoritos y mas tarde puntos.
gracias compita esta chido saludossss  
HIJO DE PUTAAAA  ME HICISTE  LLORAR, RECORDAR  MIS INICIOS EN EL METAL  PUTA MAESTRO...  JASON, UNA ESTRELLA QUE SE RESISTE A LA SUPER NOVA.

ALEJANDRO SILVA LE HIZO UN TEMA  LLAMADO SUPERNOVA,
gracias mi pana  
groso total,uno de los mejores sin duda?
ooo dios, el me hace llorar TT___TT
Para dejar un comentario Registrate! o.. eres ya usuario? Accede!