Oops.. Este post tiene los enlaces eliminados!

Identi revisa las denuncias de los usuarios en busca de enlaces eliminados que no dejan descargar los archivos, este mensaje te informa que este post que estas viendo tiene los enlaces eliminados.

Usa el Buscador

Por favor, te recomendamos que uses el buscador para encontrar más alternativas.

Iron Maiden Live in Dortmund 83 Rip PL

  • Categoría: Reciclaje
  • Publicado hace más de 4 años











HOLA Y ADIOS NO TENGO GANAS DE COMENTAR AHI DESCARGEN COMENTEN Y SOBRE TODO DEJEN PUNTOS PETARDOS.
General

Format                           : MPEG-4

Format profile                   : Base Media / Version 2

Codec ID                         : mp42

File size                        : 173 MiB

Duration                         : 40mn 25s

Overall bit rate                 : 598 Kbps 

Video

ID                               : 1

Format                           : AVC

Format/Info                      : Advanced Video Codec

Format profile                   :[email protected]

Format settings, CABAC           : No

Format settings, ReFrames        : 1 frame

Format settings, GOP             : M=1, N=60

Codec ID                         : avc1

Codec ID/Info                    : Advanced Video Coding

Duration                         : 40mn 25s

Bit rate mode                    : Variable

Bit rate                         : 498 Kbps

Maximum bit rate                 : 1 323 Kbps

Width                            : 492 pixels

Height                           : 360 pixels

Display aspect ratio             : 4:3

Frame rate mode                  : Constant

Frame rate                       : 25.000 fps

Color space                      : YUV

Chroma subsampling               : 4:2:0

Bit depth                        : 8 bits

Scan type                        : Progressive

Bits/(Pixel*Frame)               : 0.112

Stream size                      : 144 MiB (83%)

Tagged date                      : UTC 2011-10-19 12:53:28


Audio

ID                               : 2

Format                           : AAC

Format/Info                      : Advanced Audio Codec

Format profile                   : LC

Codec ID                         : 40

Duration                         : 40mn 25s

Bit rate mode                    : Variable

Bit rate                         : 96.0 Kbps

Maximum bit rate                 : 122 Kbps

Channel(s)                       : 2 channels

Channel positions                : Front: L R

Sampling rate                    : 44.1 KHz

Compression mode                 : Lossy

Stream size                      : 27.8 MiB (16%)












seguirme si les gustaron las minas Seguro Que si




Nosotras seguimos a RAFADETH  porque tu no?





Iron Maiden Live in Dortmund 83 Rip PL
25 Puntos Score: 8.3/10
Visitas: 615 Favoritos: 0
Ver los usuarios que votaron...
2 Comentarios Iron Maiden Live in Dortmund 83 Rip PL
lo descargo carnal, una vez mas.... gracias, este con unas chelas para el finesito de semana...  
Para dejar un comentario Registrate! o.. eres ya usuario? Accede!