Oops.. Este post tiene los enlaces eliminados!

Identi revisa las denuncias de los usuarios en busca de enlaces eliminados que no dejan descargar los archivos, este mensaje te informa que este post que estas viendo tiene los enlaces eliminados.

Usa el Buscador

Por favor, te recomendamos que uses el buscador para encontrar más alternativas.

Joe Satriani at the Montreux Jazz Festival in 1988

  • Categoría: Reciclaje
  • Publicado hace más de 4 años










01 - Ice 9
02 - Memories
03 - Midnight
04 - Rubina
05 - Circles
06 - Lords of Karma
07 - Stu Hamm bass solo
08 - Echo
09 - Hordes of Locusts
10 - Always With Me, Always With You
11 - Satch Boogie

General


Format                           : MPEG-4
Format profile                   : Base Media / Version 2
Codec ID                         : mp42
File size                        : 382 MiB
Duration                         : 1h 0mn
Overall bit rate                 : 885 Kbps
Encoded date                     : UTC 2012-10-22 06:46:04
Tagged date                      : UTC 2012-10-22 06:47:09
Writing application              : mp4creator 1.6.1d

Video
ID                               : 1
Format                           : MPEG-4 Visual
Format profile                   : [email protected]
Format settings, BVOP            : No
Format settings, QPel            : No
Format settings, GMC             : No warppoints
Format settings, Matrix          : Default (H.263)
Codec ID                         : 20
Duration                         : 1h 0mn
Bit rate mode                    : Variable
Bit rate                         : 699 Kbps
Maximum bit rate                 : 1 761 Kbps
Width                            : 480 pixels
Height                           : 360 pixels
Display aspect ratio             : 4:3
Frame rate mode                  : Constant
Frame rate                       : 30.000 fps
Color space                      : YUV
Chroma subsampling               : 4:2:0
Bit depth                        : 8 bits
Scan type                        : Progressive
Compression mode                 : Lossy
Bits/(Pixel*Frame)               : 0.135
Stream size                      : 302 MiB (79%)
Encoded date                     : UTC 2012-10-22 06:46:04
Tagged date                      : UTC 2012-10-22 06:47:06

Audio
ID                               : 2
Format                           : AAC
Format/Info                      : Advanced Audio Codec
Format profile                   : LC
Codec ID                         : 40
Duration                         : 1h 0mn
Bit rate mode                    : Variable
Bit rate                         : 183 Kbps
Maximum bit rate                 : 221 Kbps
Channel(s)                       : 2 channels
Channel positions                : Front: L R
Sampling rate                    : 44.1 KHz
Compression mode                 : Lossy
Stream size                      : 79.0 MiB (21%)
Encoded date                     : UTC 2012-10-22 06:47:06
Tagged date                      : UTC 2012-10-22 06:47:09



HOLA Y ADIOS NO TENGO GANAS DE COMENTAR AHI DESCARGEN COMENTEN Y SOBRE TODO DEJEN PUNTOS PETARDOS

El MAESTRO SATRIANI QUE MAS SE PUEDE DECIR

General












seguirme si les gustaron las minas Seguro Que si




Nosotras seguimos a RAFADETH  porque tu no?


Joe Satriani at the Montreux Jazz Festival in 1988
6 Puntos Score: 6/10
Visitas: 678 Favoritos: 0
Ver los usuarios que votaron...
6 Comentarios Joe Satriani at the Montreux Jazz Festival in 1988
gracias pero de casualidad no tendras el live in san francisco saludos
Cita evilhyde: Mostrar
yo lo tengo, la verdad es el mejor, me hiciste acordar que tengo que hacer una copia, hace a?
avisame cuando la subas si es dvd o blue ray mejor aun yo la tenia en dvd pero no la consigo mas ahora lo tengo en dvd rip se ve para el orto
@evilhyde sera dificil man tengo de SATRIANI otros pero ese precisamente mil disculpas creo solo tenia el disco
No hay problema saludos y gracias por interesarte saludos
Para dejar un comentario Registrate! o.. eres ya usuario? Accede!