Oops.. Este post tiene los enlaces eliminados!

Identi revisa las denuncias de los usuarios en busca de enlaces eliminados que no dejan descargar los archivos, este mensaje te informa que este post que estas viendo tiene los enlaces eliminados.

Usa el Buscador

Por favor, te recomendamos que uses el buscador para encontrar más alternativas.

Megadeth Maquinaria Festival Chile 2011 Rip 2S

  • Categoría: Reciclaje
  • Publicado hace más de 4 años















HOLA Y ADIOS NO TENGO GANAS DE COMENTAR AHI DESCARGEN COMENTEN Y SOBRE TODO DEJEN PUNTOS PETARDOS 


General
Format                           : MPEG-4

Codec ID                         : M4V

File size                        : 301 MiB

Duration                         : 57mn 45s

Overall bit rate                 : 730 Kbps

widt                             : (Binary)

heig                             : (Binary)

Video

ID                               : 1

Format                           : AVC

Format/Info                      : Advanced Video Codec

Format profile                   :[email protected]

Format settings, CABAC           : No

Format settings, ReFrames        : 1 frame

Format settings, GOP             : M=1, N=60

Codec ID                         : avc1

Codec ID/Info                    : Advanced Video Coding

Duration                         : 57mn 45s

Bit rate mode                    : Variable

Bit rate                         : 631 Kbps

Maximum bit rate                 : 1 805 Kbps

Width                            : 640 pixels

Height                           : 360 pixels

Display aspect ratio             : 16:9

Frame rate mode                  : Variable

Frame rate                       : 29.970 fps

Minimum frame rate               : 29.528 fps

Maximum frame rate               : 30.426 fps

Color space                      : YUV

Chroma subsampling               : 4:2:0

Bit depth                        : 8 bits

Scan type                        : Progressive

Bits/(Pixel*Frame)               : 0.091

Stream size                      : 261 MiB (86%)

Audio

ID                               : 2

Format                           : AAC

Format/Info                      : Advanced Audio Codec

Format profile                   : LC

Codec ID                         : 40

Duration                         : 57mn 45s

Bit rate mode                    : Constant

Bit rate                         : 96.0 Kbps

Channel(s)                       : 2 channels

Channel positions                : Front: L R

Sampling rate                    : 44.1 KHz

Compression mode                 : Lossy

Stream size                      : 39.8 MiB (13%)



Megadeth Maquinaria Festival Chile 2011 Rip 2S
10 Puntos Score: 10/10
Visitas: 538 Favoritos: 1
Ver los usuarios que votaron...
3 Comentarios Megadeth Maquinaria Festival Chile 2011 Rip 2S
Hola rafa podr?
escribe nada mas asi de [email protected]
Para dejar un comentario Registrate! o.. eres ya usuario? Accede!