Oops.. Este post tiene los enlaces eliminados!

Identi revisa las denuncias de los usuarios en busca de enlaces eliminados que no dejan descargar los archivos, este mensaje te informa que este post que estas viendo tiene los enlaces eliminados.

Usa el Buscador

Por favor, te recomendamos que uses el buscador para encontrar más alternativas.

Megadeth That One Night Live In Buenos Aires 2007

  • Categoría: Reciclaje
  • Publicado hace más de 4 años









Buenas noches para los fieles seguidores de Megadeth este infaltable dentro de los recitales uno que no se pueden perder saludos espero les guste  comenten y vacien sus puntos 



General


Format                           : MPEG-4

Format profile                   : Base Media / Version 2

Codec ID                         : mp42

File size                        : 544 MiB

Duration                         : 1h 35mn

Overall bit rate                 : 797 Kbps

Encoded date                     : UTC 2012-10-12 17:25:57

Tagged date                      : UTC 2012-10-12 17:26:33

Writing application              : mp4creator 1.6.1d


Video

ID                               : 1

Format                           : AVC

Format/Info                      : Advanced Video Codec

Format profile                   : [email protected]

Format settings, CABAC           : No

Format settings, ReFrames        : 1 frame

Codec ID                         : avc1

Codec ID/Info                    : Advanced Video Coding

Duration                         : 1h 35mn

Bit rate mode                    : Variable

Bit rate                         : 611 Kbps

Width                            : 496 pixels

Height                           : 288 pixels

Display aspect ratio             : 16:9

Original display aspect ratio    : 16:9

Frame rate mode                  : Variable

Frame rate                       : 23.976 fps

Minimum frame rate               : 23.974 fps

Maximum frame rate               : 23.981 fps

Color space                      : YUV

Chroma subsampling               : 4:2:0

Bit depth                        : 8 bits

Scan type                        : Progressive

Bits/(Pixel*Frame)               : 0.178

Stream size                      : 417 MiB (77%)

Encoded date                     : UTC 2012-10-12 17:25:57

Tagged date                      : UTC 2012-10-12 17:26:23


Audio

ID                               : 2

Format                           : AAC

Format/Info                      : Advanced Audio Codec

Format profile                   : LC

Codec ID                         : 40

Duration                         : 1h 35mn

Bit rate mode                    : Variable

Bit rate                         : 184 Kbps

Maximum bit rate                 : 215 Kbps

Channel(s)                       : 2 channels

Channel positions                : Front: L R

Sampling rate                    : 44.1 KHz

Compression mode                 : Lossy

Stream size                      : 125 MiB (23%)

Encoded date                     : UTC 2012-10-12 17:26:30

Tagged date                      : UTC 2012-10-12 17:26:33






Megadeth That One Night Live In Buenos Aires 2007
5 Puntos Score: 5/10
Visitas: 536 Favoritos: 0
Ver los usuarios que votaron...
4 Comentarios Megadeth That One Night Live In Buenos Aires 2007
hermano That One Night fue en 2005  
exelente pero,vi este por youtube y no puede apreciar ni un mosh puro salto nada mas
uno de los mejores recitales de heavy metal de todos los tiempos !!! y paso en mi pais argentina   , gracias por compartir   , excelente material !!!
Para dejar un comentario Registrate! o.. eres ya usuario? Accede!