Oops.. Este post tiene los enlaces eliminados!

Identi revisa las denuncias de los usuarios en busca de enlaces eliminados que no dejan descargar los archivos, este mensaje te informa que este post que estas viendo tiene los enlaces eliminados.

Usa el Buscador

Por favor, te recomendamos que uses el buscador para encontrar más alternativas.

Motörhead Live Rock Am Ring 2010 Rip

  • Categoría: Reciclaje
  • Publicado hace más de 4 años











Buenos muchachos antes de ir a distraerme como ya saben mi aporte diario bueno sin explicar mas ya saben  Motörhead eso es todo comenten y dejen TODO SUS PUNTOS DE HOY  

General

Format                           : MPEG-4

Format profile                   : Base Media / Version 2

Codec ID                         : mp42

File size                        : 350 MiB

Duration                         : 1h 12mn

Overall bit rate                 : 690 Kbps

Video

ID                               : 1

Format                           : AVC

Format/Info                      : Advanced Video Codec

Format profile                   :[email protected]

Format settings, CABAC           : No

Format settings, ReFrames        : 1 frame

Format settings, GOP             : M=1, N=60

Codec ID                         : avc1

Codec ID/Info                    : Advanced Video Coding

Duration                         : 1h 12mn

Bit rate mode                    : Variable

Bit rate                         : 591 Kbps

Maximum bit rate                 : 2 271 Kbps

Width                            : 634 pixels

Height                           : 360 pixels

Display aspect ratio             : 16:9

Frame rate mode                  : Constant

Frame rate                       : 25.000 fps

Color space                      : YUV

Chroma subsampling               : 4:2:0

Bit depth                        : 8 bits

Scan type                        : Progressive

Bits/(Pixel*Frame)               : 0.104

Stream size                      : 306 MiB (86%)

Tagged date                      : UTC 2011-10-29 00:56:30


Audio

ID                               : 2

Format                           : AAC

Format/Info                      : Advanced Audio Codec

Format profile                   : LC

Codec ID                         : 40

Duration                         : 1h 12mn

Bit rate mode                    : Variable

Bit rate                         : 96.0 Kbps

Maximum bit rate                 : 119 Kbps

Channel(s)                       : 2 channels

Channel positions                : Front: L R

Sampling rate                    : 44.1 KHz

Compression mode                 : Lossy

Stream size                      : 49.6 MiB (14%)










Motörhead Live Rock Am Ring 2010 Rip
5 Puntos Score: 5/10
Visitas: 494 Favoritos: 4
Ver los usuarios que votaron...
5 Comentarios Motörhead Live Rock Am Ring 2010 Rip
no puedo extraerlo, me dice que el archivo esta da?
@Bostera muy raro man la verdad un amigo lo bajo y dice que esta bien eso fue cuando reci?
lo voy a descargar de nuevo, gracias! es un gran aporte!
Para dejar un comentario Registrate! o.. eres ya usuario? Accede!