Oops.. Este post tiene los enlaces eliminados!

Identi revisa las denuncias de los usuarios en busca de enlaces eliminados que no dejan descargar los archivos, este mensaje te informa que este post que estas viendo tiene los enlaces eliminados.

Usa el Buscador

Por favor, te recomendamos que uses el buscador para encontrar más alternativas.

Asesinos en Serie Edmund Kemper Big Ed

  • Categoría: Reciclaje
  • Publicado hace más de 4 años




Edmund Emil "Big Ed" Kemper III (18 de diciembre de 1948), [ 1 ] también conocido como "el asesino Co-ed" , [ 2 ] es un americano asesino en serie y necrófilo que estuvo activo en California en la década de 1970. Comenzó su vida criminal por el asesinato de sus abuelos cuando tenía 15 años de edad. [ 2 ] Kemper posteriormente asesinado y descuartizado seis mujeres autoestopistas en Santa Cruz zona. Luego asesinó a su madre y uno de sus amigos antes de entregarse a las autoridades días después. Kemper se destaca por su físico imponente, de pie 6 pies 9 pulgadas (2,06 m) y un peso de más de 300 libras (140 kg).





General

Format                           : MPEG-4

Format profile                   : Base Media / Version 2

Codec ID                         : mp42

File size                        : 214 MiB

Duration                         : 44mn 40s

Overall bit rate                 : 670 Kbps

Encoded date                     : UTC 2012-10-10 13:35:51

Tagged date                      : UTC 2012-10-10 13:36:10

Writing application              : mp4creator 1.6.1d


Video

ID                               : 1

Format                           : AVC

Format/Info                      : Advanced Video Codec

Format profile                   : [email protected]

Format settings, CABAC           : No

Format settings, ReFrames        : 1 frame

Codec ID                         : avc1

Codec ID/Info                    : Advanced Video Coding

Duration                         : 44mn 40s

Bit rate mode                    : Variable

Bit rate                         : 508 Kbps

Width                            : 592 pixels

Original width                   : 586 pixels

Height                           : 368 pixels

Original height                  : 360 pixels

Display aspect ratio             : 1.609

Original display aspect ratio    : 1.628

Frame rate mode                  : Constant

Frame rate                       : 25.000 fps

Color space                      : YUV

Chroma subsampling               : 4:2:0

Bit depth                        : 8 bits

Scan type                        : Progressive

Bits/(Pixel*Frame)               : 0.093

Stream size                      : 162 MiB (76%)

Encoded date                     : UTC 2012-10-10 13:35:51

Tagged date                      : UTC 2012-10-10 13:36:02


Audio

ID                               : 2

Format                           : AAC

Format/Info                      : Advanced Audio Codec

Format profile                   : LC

Codec ID                         : 40

Duration                         : 44mn 39s

Bit rate mode                    : Variable

Bit rate                         : 160 Kbps

Maximum bit rate                 : 248 Kbps

Channel(s)                       : 2 channels

Channel positions                : Front: L R

Sampling rate                    : 44.1 KHz

Compression mode                 : Lossy

Stream size                      : 51.1 MiB (24%)

Encoded date                     : UTC 2012-10-10 13:36:03

Tagged date                      : UTC 2012-10-10 13:36:10



Visiten mi Perfil Mas de  100 Rips de metales autentico.




http://www.identi.li/index.php?action=profile, user = Rafadeth









seguirme si les gustaron las minas Seguro Que si









Nosotras seguimos a RAFADETH  porque tu no?







Asesinos en Serie Edmund Kemper Big Ed
10 Puntos Score: 10/10
Visitas: 1192 Favoritos: 0
Ver los usuarios que votaron...
7 Comentarios Asesinos en Serie Edmund Kemper Big Ed
toda la coleccion de asesinos aqui bueno todavia te faltan varios
Muy Bueno!!! Para Cuando Rafadeth el asesino en serie de Identi ??? Avisame Muchas Gracias
No se puede descargar el archivo 2. .Alguien me puede guiar?
el archivo 2 dice  The file you attempted to download is an archive that is damaged or possibly encrypted. MediaFire does not support unlimited downloads of broken or encrypted archives and the limit for this file has been reached. This file may only be distributed from a premium account.

We have informed the owner that sharing of this file has been limited and how they can resolve this issue.

Still have questions or do you think we've made an mistake? Check our knowledge base for more information or contact us about it.
@omar273 @reynnaldo  hola chicos creo no es cosa mia es de mediafire la carpeta lleva como 26 descargas no usen jd o mypony asi creo si se lo podran bajar
no se puede bajar de ninguna manera.
Lo que pasa es que solo puede ser compartido por un usuario premium, espor eso que no se puede descargar. Ya llego al limite de descargas por ser un usuario normal.
Para dejar un comentario Registrate! o.. eres ya usuario? Accede!