El viaje de chihiro Brrip [Cast,Lat,Eng,Fra,Jap ]








Chichiro y su familia van rumbo a su nueva casa en los suburbios cuando el padre decide tomar un atajo por un camino solitario. Despues de salir del carro y caminar por un sendero por un rato, ellos descubren un restaurante al aire libre repleto de comida pero sin personal ni comensales. Papa y Mama no dudan en sentarse a comer pero Chichiro presiente el peligro y se niega a probar bocado. Al caer la noche, Chichiro se asusta al notar que el area se llena de espiritus sin rostro, pero al correr a advertirselo a sus padres, ella descubre que estos han sido convertidos en cerdos. Un misterioso niño de nombre Haku se encuentra con Chichiro y le promete ayudarla, consiguiendole trabajo en un edificio cercano, que resulta ser una casa de baños para miles de dioses y espiritus japoneses. Aunque el trabajo es duro y los visitantes extraños, ella lo hace lo mejor posible. Sus padres son entonces llevados al corral del hotel, Chichiro debe conseguir la forma de romper el hechizo antes de que terminen como el plato principal de alguno de los huespedes.






Titulo Original: Sen to Chihiro no Kamikakushi(????????) 
Título Alternativo: El Viaje De Chihiro ó Spirited Away
Tipo:  Animación, Pelicula
Director: Hayao Miyazaki
Guión:Hayao Miyazaki
Estudio: Studio Ghibli
Música:Joe Hisaishi
Producción:Toshio Suzuki
Género:Aventura, Drama, Sobrenatural, Fantasía, Romance 
Año:2001
Formato: MKV
Resolucion: 1920x1040
Peso: 3.29 GB Aprox.
Calidad: Excelente
Idiomas: Castellano, Latino, Japonés, Inglés, Frances.








Format: Matroska

File size: 3.30 GiB

Duration: 2h 4mn

Overall bit rate: 3 791 Kbps




Video



Format/Info: Advanced Video Codec

Format profile: [email protected]

Format settings, CABAC: Yes

Format settings, ReFrames: 3 frames

Muxing mode: Header stripping

Codec ID : V_MPEG4/ISO/AVC

Duration: 2h 4mn

Bit rate: 2 000 Kbps

Width: 1 920 pixels

Height: 1 040 pixels

Display aspect ratio: 16:9

Frame rate mode: Variable

Frame rate: 23.976 fps

Color space: YUV

Chroma subsampling: 4:2:0

Bit depth: 8 bits

Scan type: Progressive

Bits/(Pixel*Frame): 0.042

Stream size: 1.67 GiB (51%)

Writing library: x264 core 120







Audio #1


ID : 27

Format: AC-3

Format/Info: Audio Coding 3

Mode extension: CM (complete main)

Muxing mode: Header stripping

Codec ID: A_AC3

Duration: 2h 4mn

Bit rate mode: Constant

Bit rate: 384 Kbps

Channel(s): 6 channels

Channel positions: Front: L C R, Side: L R, LFE

Sampling rate: 48.0 KHz

Bit depth: 16 bits

Compression mode: Lossy

Delay relative to video: 6ms

Stream size : 342 MiB (10%)

Language: Spanish








Audio #2



Format : AC-3

Format/Info : Audio Coding 3

Mode extension : CM (complete main)

Muxing mode : Header stripping

Codec ID : A_AC3

Duration : 2h 4mn

Bit rate mode : Constant

Bit rate : 384 Kbps

Channel(s) : 6 channels

Channel positions : Front: L C R, Side: L R, LFE

Sampling rate : 48.0 KHz

Bit depth : 16 bits

Compression mod : Lossy

Stream size : 342 MiB (10%)

Language : Spanish







Audio #3


ID : 30

Format : AC-3

Format/Info : Audio Coding 3

Mode extension : CM (complete main)

Muxing mode : Header stripping

Codec ID : A_AC3

Duration : 2h 4mn

Bit rate mode : Constant

Bit rate: 384 Kbps

Channel(s) : 6 channels

Channel positions : Front: L C R, Side: L R, LFE

Sampling rate: 48.0 KHz

Bit depth: 16 bits

Compression mode: Lossy

Stream size : 342 MiB (10%)

Language: Japanese







Audio #4



ID : 32

Format : AC-3

Format/Info: Audio Coding 3

Format profile: Dolby Digital

Mode extension : CM (complete main)

Muxing mode : Header stripping

Codec ID : A_AC3

Duration: 2h 4mn

Bit rate mode: Constant

Bit rate: 192 Kbps

Channel(s): 2 channels

Channel positions: Front: L R

Sampling rate: 48.0 KHz

Bit depth: 16 bits

Compression mode: Lossy

Delay relative to video: 8ms

Stream size: 171 MiB (5%)

Language: French







Audio #5





Format: AC-3

Format/Info: Audio Coding 3

Mode extension: CM (complete main)

Muxing mode : Header stripping

Codec ID: A_AC3

Duration: 2h 4mn

Bit rate mode: Constant

Bit rate: 448 Kbps

Channel(s): 6 channels

Channel positions: Front: L C R, Side: L R, LFE

Sampling rate: 48.0 KHz

Bit depth: 16 bits

Compression mode: Lossy

Delay relative to video: 8ms

Stream size: 399 MiB (12%)

Language: English


Subtítulos: Arabic, Czech, Danish, Dutch, English, Esperanto, Estonian, Farsi-Persian, Finnish, French, German, Hebrew, Hungarian, Italian, Japanese, Lithuanian, Polish, Portuguese, Romanian, Russian, Serbian, Slovak, Slovenian, Spanish, Swedish, Turkish, Vietnamese. 
































http://www.gamefront.com/files/22434803/EVDCMU_part1_rar

http://www.gamefront.com/files/22435127/EVDCMU_part2_rar

http://www.gamefront.com/files/22435559/EVDCMU_part3_rar

http://www.gamefront.com/files/22436531/EVDCMU_part4_rar

http://www.gamefront.com/files/22437354/EVDCMU_part5_rar

http://www.gamefront.com/files/22438226/EVDCMU_part6_rar

http://www.gamefront.com/files/22438785/EVDCMU.part7.rar






pablo44om 
El viaje de chihiro Brrip [Cast,Lat,Eng,Fra,Jap ]
35 Puntos Score: 7/10
Visitas: 3717 Favoritos: 9
Ver los usuarios que votaron...
39 Comentarios El viaje de chihiro Brrip [Cast,Lat,Eng,Fra,Jap ]
cuando la vi por primera ves creo que tenia 6 a?
Excelente pelicula muchas gracias  
@Esojzx @kiko615

Gracias por comentar amigos.  
grosa peli!!! muchas gracias por compartirla. una cosilla los archivos 6 y 7 dan temporalmnt incomprobable. cuestiones de cerrar y actualizar el JD sera? un abrazo  
@dante666
Hola amigo creo que es un problema con gamefront.
Cita pablo44om: Mostrar
Excelente!!! A favoritos y encima 1080p!!!  
@carlinx.av
Gracias amigo y esperemos que los problemas para descargar de gamefront se resuelvan pronto.
Gracias, es una obligacion tener esta peli y mas a esta calidad  
Sencillamente APORTAZO!!! ojala puedas seguir consiguiendo estos cl?
Descargada Sencillamente  muchas gracias por compartirla.  
Buenisima muchas gracias por compartir esta maravilla
Quitando los demas audios y subtitulos, solo dejando el segundo subtitulo en espa?
@Yuzk3
Lo extraje del dvd amigo, pero si pudieras lograr una mejor sincronizacion en el audio todos te lo agradeceriamos.
@kiko615 gracias mi viejo ya me fijo d nuevo.
 
Cita pablo44om: Mostrar

Ok, gracias por el dato, vere que puedo hacer, creo que detecte otra cosa, al parecer se desincroniza si adelanto a ciertos puntos de la pelicula ya que me paso lo mismo con el audio japones, lo que quiere decir que posiblemente si no adelanto la pelicula no se desincronice pero para comprobarlo tendre que verla completa :p .
gracias por la invitcii?
muchas gracias me la llevo  
@pablo44om te dejo el crack de dishored por aqui,es mediafire ya que me dicen que eh excedido mi limite de 1 mp por hora?jajajajaja pero esto q es.....saludos espero te sirva
http://www.mediafire.com/download.php?mslqykt5s5r7bl5
@ventura198
Muchas gracias amigo.  
@pablo44om a ti por preguntar,prueba si funciona....espero que si es el que utilizo yo...saludos...
Estupendo aporte y encima en gamefront   Gracias por compartir  
Saludos
gracias por el esfuerzo puesto en este post y excelente aporte
@ocelot2.0

Gracias por comentar amigo.
Excelente pelicula. la super recomiendo Y encima en BD-Rip mas aun. xD Gracias por compartir
Muchas graxxx!!!! me la llevo
MUCHISIMAS GRACIAS SIEMPRE LA BUCABA EN HD PERO NUNCA ESTABA EN LATINO
GRACIAS!!!!
un gran aporte     lo estaba buscando x todas partes gracias man  y podrias subir tambien el castillo ambulante de howl en 1080p en idioma latino, japones y ingles eso seria genial si lo pudieras subir por favor  
oye man los link estan caidos   podrias subirlos otra vez xfa
Volve a subir la parte tres EVDCMU.part3.rar
Cita oxwar88: Mostrar

Que pasa con esa parte amigo? la acabo de comprobar y esta disponible.
solo con esa parte me sale

Archivo no encontrado
     
     
     
     
     
       
       
          Firefox no puede encontrar el archivo en http://media1.gamefront.com/guploads/201210/11/03/EVDCMU.part3.rar?b17f4b620c6cf1393ffa644d11eea151ee12995c6f2461e126e601
Para dejar un comentario Registrate! o.. eres ya usuario? Accede!