Oops.. Este post tiene los enlaces eliminados!

Identi revisa las denuncias de los usuarios en busca de enlaces eliminados que no dejan descargar los archivos, este mensaje te informa que este post que estas viendo tiene los enlaces eliminados.

Usa el Buscador

Por favor, te recomendamos que uses el buscador para encontrar más alternativas.

Documental Charles Manson History Channel

  • Categoría: Reciclaje
  • Publicado hace más de 4 años








Charles Milles Manson (nacido el 12 de noviembre 1934) es un criminal y músico que dirigió lo que se conoció como la Familia Manson, un cuasi- comuna que surgió en California a finales de 1960.  Se le declaró culpable de conspiración para cometer los asesinatos de Sharon Tate y Leno y Rosemary LaBianca llevada a cabo por los miembros del grupo en su instrucción. Fue declarado culpable de los asesinatos a través de la regla de responsabilidad conjunta , lo que hace cada miembro de una conspiración culpable de crímenes de sus cómplices cometen en cumplimiento del objetivo de la conspiración. 
Manson creía en lo que él llamaba " Helter Skelter ", un término que tomó de la canción del mismo nombre por The Beatles . Manson Helter Skelter cree ser un inminente apocalíptica guerra de razas , que él describió en su propia versión de la letra a la canción de los Beatles. Creía que sus asesinatos ayudaría a precipitar la guerra. Desde el inicio de su notoriedad, una cultura pop surgió en torno a él en la que finalmente se convirtió en un emblema de la locura, la violencia y el macabro . El término fue utilizado más adelante por Manson fiscal Vincent Bugliosi como el título de un libro que escribió sobre los asesinatos de Manson.
En el momento de la Familia comenzó a formarse, Manson era un desempleado ex-convicto , que había pasado la mitad de su vida en instituciones correccionales para una variedad de delitos. Antes de los asesinatos, fue un cantante y compositor al margen de la industria de la música en Los Angeles, principalmente a través de una asociación casual con Dennis Wilson , miembro fundador y baterista de The Beach Boys . Después de Manson fue acusado de los delitos de los que fue condenado más tarde, las grabaciones de las canciones escritas e interpretadas por él fueron liberados comercialmente. Varios músicos, incluyendo Guns N 'Roses , White Zombie y Marilyn Manson , han cubierto algunas de sus canciones.
Manson sentencia de muerte fue automáticamente conmutada a cadena perpetua cuando una decisión de 1972 por la Corte Suprema de California eliminó temporalmente pena de muerte del estado. [ 6 ] reintegro eventual de California de la pena capital no afectó a Manson, quien se encuentra encarcelado en la Prisión Estatal de Corcoran .







 La familia






General

Format                           : MPEG-4

Format profile                   : Base Media / Version 2

Codec ID                         : mp42

File size                        : 437 MiB

Duration                         : 1h 30mn

Overall bit rate                 : 677 Kbps

Encoded date                     : UTC 2012-10-09 18:31:56

Tagged date                      : UTC 2012-10-09 18:32:23

Writing application              : mp4creator 1.6.1d


Video

ID                               : 1

Format                           : AVC

Format/Info                      : Advanced Video Codec

Format profile                   : [email protected]

Format settings, CABAC           : No

Format settings, ReFrames        : 1 frame

Codec ID                         : avc1

Codec ID/Info                    : Advanced Video Coding

Duration                         : 1h 30mn

Bit rate mode                    : Variable

Bit rate                         : 506 Kbps

Width                            : 624 pixels

Original width                   : 620 pixels

Height                           : 368 pixels

Original height                  : 360 pixels

Display aspect ratio             : 1.696

Original display aspect ratio    : 16:9

Frame rate mode                  : Constant

Frame rate                       : 25.000 fps

Color space                      : YUV

Chroma subsampling               : 4:2:0

Bit depth                        : 8 bits

Scan type                        : Progressive

Bits/(Pixel*Frame)               : 0.088

Stream size                      : 326 MiB (75%)

Encoded date                     : UTC 2012-10-09 18:31:56

Tagged date                      : UTC 2012-10-09 18:32:16


Audio

ID                               : 2

Format                           : AAC

Format/Info                      : Advanced Audio Codec

Format profile                   : LC

Codec ID                         : 40

Duration                         : 1h 30mn

Bit rate mode                    : Variable

Bit rate                         : 170 Kbps

Maximum bit rate                 : 242 Kbps

Channel(s)                       : 2 channels

Channel positions                : Front: L R

Sampling rate                    : 44.1 KHz

Compression mode                 : Lossy

Stream size                      : 109 MiB (25%)

Encoded date                     : UTC 2012-10-09 18:32:17

Tagged date                      : UTC 2012-10-09 18:32:23


Visiten mi Perfil Mas de  100 Rips de metales autentico.




http://www.identi.li/index.php?action=profile, user = Rafadeth








http://www.mediafire.com/?vpyv3wwac2ncgti,xup73fis3bwnirb,oo215ljc2rolp6q,h63i3kf68k0fmti,e10a1f31dtjhtf6

1970 - Lie - The Love And Terror Cult

http://www.mediafire.com/?f1rw7ogc1sjsux0
Agradecimiento a @Marianoaxl  por facilitarme este material



seguirme si les gustaron las minas Seguro Que si



Nosotras seguimos a RAFADETH  porque tu no?




Documental Charles Manson History Channel
25 Puntos Score: 6.3/10
Visitas: 1831 Favoritos: 3
Ver los usuarios que votaron...
8 Comentarios Documental Charles Manson History Channel
marilyn manson
sale de ese personaje.......

Se ve buenisimo viejo. solamente la pregunta de si esta en espa?
Muchisimas Gracias @Rafadeth Por Cumplir con Mi Pedido y Por Tenerme en Cuenta!!! Muchas Gracias
GRACIAS SI ME DARE UNAS VUELTAS POR TUS DEMAS POST  
El mejor post del mundo !!!!  
no puedo bajarlo mediafire dice que ha bloqueado la descarga,pero gracias me voy bajando tus aportes de asesinos en serie de mientras ,a ver si puedes arreglarlo que me gustaria verlo o a ver si a alguien mas le pasa esto del bloqueo,yo es la primera vez que veo que mediafire me pida cuenta premium para bajar algo ,que raro tio
@Lord_Drakul LATINO PERO NO SE SI ESTEN EN LINEA LA VERDAD MEDIA ME TIRO LA CUENTA   si esta bajalo
Para dejar un comentario Registrate! o.. eres ya usuario? Accede!