Hello Brother (2005)(Korea Drama)DVDrip-Mediafire

$$$..HOLA HOY LES TRAIGO UN DRAMA COREANO REALMENTE CONMOVEDORA. QUE ME COSTO MUCHO SUBIRLO A MEDIAFIRE PARA USTEDES..YA QUE NO CUENTO CON UN INTERNET BUENO...PERO YA LOGRE SUBIRLO ESPERO QUE LO DISFRUTEN HACI COMO YO LO DESFRUTE...SALUDOS..$$$$

 

 
 
Hello Brother (2005)

 

 Han-yi (Park Ji-bin) de 9 años,es un alborotador que no tiene miedo de nada. sus amigos de la escuela son sus subordinados, e incluso los miembros de su familia están bajo su control no trata con mucho respeto a su hermano mayor Han-byul (Seo Dae-Han) de 12, a quien molesta permanentemente con bromas. De pronto, a Han-byul le diagnostican un tumor cerebral y es sometido a una operación. La historia está basada en personajes reales.
 
 

 Versión: Theonly
IDIOMA:COREANO/SUB ESPAÑOL
FORMATO: DIVX PARA VERLO EN SUS DVDs Por USB
 Video
ID                                       : 0
Format                                   : MPEG-4 Visual
Format profile                           : [email protected]
Format settings, BVOP                    : No
Format settings, QPel                    : No
Format settings, GMC                     : No warppoints
Format settings, Matrix                  : Default (H.263)
Codec ID                                 : DX50
Codec ID/Hint                            : DivX 5
Duration                                 : 1h 37mn
Bit rate                                 : 815 Kbps
Width                                    : 640 pixels
Height                                   : 480 pixels
Display aspect ratio                     : 4:3
Frame rate                               : 30.000 fps
Color space                              : YUV
Chroma subsampling                       : 4:2:0
Bit depth                                : 8 bits
Scan type                                : Interlaced
Scan order                               : Top Field First
Compression mode                         : Lossy
Bits/(Pixel*Frame)                       : 0.088
Stream size                              : 566 MiB (85%)
Writing library                          : Lavc51.44.0

Audio
ID                                       : 1
Format                                   : MPEG Audio
Format version                           : Version 1
Format profile                           : Layer 3
Mode                                     : Joint stereo
Mode extension                           : MS Stereo
Codec ID                                 : 55
Codec ID/Hint                            : MP3
Duration                                 : 1h 37mn
Bit rate mode                            : Constant
Bit rate                                 : 128 Kbps
Channel(s)                               : 2 channels
Sampling rate                            : 44.1 KHz
Compression mode                         : Lossy
Stream size                              : 88.8 MiB (13%)
Alignment                                : Aligned on interleaves
Interleave, duration                     : 26 ms (0.78 video frame)
Interleave, preload duration             : 809 ms
Writing library                          : LAME3.97


























identi/theonly

Unir Los archivos con HJSPLIT: Por si no Tienes el Programa esta en el lick De La Peli...


Hello Brother (2005)(Korea Drama)DVDrip-Mediafire
0 Puntos Score: 0/10
Visitas: 1216 Favoritos: 4
4 Comentarios Hello Brother (2005)(Korea Drama)DVDrip-Mediafire
excelente aporte, me gusto mucho la sinopsis, a descargar entonces. gracias por compartir  
excelente aporte men , se agradece
bro, sabes q me da error la clave para descargar, podrias revisar?
ya correji el pass :.  identi/theonly
Para dejar un comentario Registrate! o.. eres ya usuario? Accede!