Oops.. Este post tiene los enlaces eliminados!

Identi revisa las denuncias de los usuarios en busca de enlaces eliminados que no dejan descargar los archivos, este mensaje te informa que este post que estas viendo tiene los enlaces eliminados.

Usa el Buscador

Por favor, te recomendamos que uses el buscador para encontrar más alternativas.

Los Asesinatos Charles Manson

  • Categoría: Reciclaje
  • Publicado hace más de 4 años






Charles Milles Manson (nacido el 12 de noviembre 1934) es un criminal y músico que dirigió lo que se conoció como la Familia Manson, un cuasi- comuna que surgió en California a finales de 1960.  Se le declaró culpable de conspiración para cometer los asesinatos de Sharon Tate y Leno y Rosemary LaBianca llevada a cabo por los miembros del grupo en su instrucción. Fue declarado culpable de los asesinatos a través de la regla de responsabilidad conjunta , lo que hace cada miembro de una conspiración culpable de crímenes de sus cómplices cometen en cumplimiento del objetivo de la conspiración. 
Manson creía en lo que él llamaba " Helter Skelter ", un término que tomó de la canción del mismo nombre por The Beatles . Manson Helter Skelter cree ser un inminente apocalíptica guerra de razas , que él describió en su propia versión de la letra a la canción de los Beatles. Creía que sus asesinatos ayudaría a precipitar la guerra. Desde el inicio de su notoriedad, una cultura pop surgió en torno a él en la que finalmente se convirtió en un emblema de la locura, la violencia y el macabro . El término fue utilizado más adelante por Manson fiscal Vincent Bugliosi como el título de un libro que escribió sobre los asesinatos de Manson.
En el momento de la Familia comenzó a formarse, Manson era un desempleado ex-convicto , que había pasado la mitad de su vida en instituciones correccionales para una variedad de delitos. Antes de los asesinatos, fue un cantante y compositor al margen de la industria de la música en Los Angeles, principalmente a través de una asociación casual con Dennis Wilson , miembro fundador y baterista de The Beach Boys . Después de Manson fue acusado de los delitos de los que fue condenado más tarde, las grabaciones de las canciones escritas e interpretadas por él fueron liberados comercialmente. Varios músicos, incluyendo Guns N 'Roses , White Zombie y Marilyn Manson , han cubierto algunas de sus canciones.
Manson sentencia de muerte fue automáticamente conmutada a cadena perpetua cuando una decisión de 1972 por la Corte Suprema de California eliminó temporalmente pena de muerte del estado. [ 6 ] reintegro eventual de California de la pena capital no afectó a Manson, quien se encuentra encarcelado en la Prisión Estatal de Corcoran .






General


Format                           : MPEG-4

Format profile                   : Base Media / Version 2

Codec ID                         : mp42

File size                        : 220 MiB

Duration                         : 44mn 53s

Overall bit rate                 : 684 Kbps

Encoded date                     : UTC 2012-10-09 17:44:53

Tagged date                      : UTC 2012-10-09 17:45:08

Writing application              : mp4creator 1.6.1d


Video

ID                               : 1

Format                           : AVC

Format/Info                      : Advanced Video Codec

Format profile                   : [email protected]

Format settings, CABAC           : No

Format settings, ReFrames        : 1 frame

Codec ID                         : avc1

Codec ID/Info                    : Advanced Video Coding

Duration                         : 44mn 53s

Bit rate mode                    : Variable

Bit rate                         : 511 Kbps

Width                            : 640 pixels

Height                           : 368 pixels

Original height                  : 360 pixels

Display aspect ratio             : 16:9

Original display aspect ratio    : 16:9

Frame rate mode                  : Constant

Frame rate                       : 15.000 fps

Color space                      : YUV

Chroma subsampling               : 4:2:0

Bit depth                        : 8 bits

Scan type                        : Progressive

Bits/(Pixel*Frame)               : 0.145

Stream size                      : 164 MiB (75%)

Encoded date                     : UTC 2012-10-09 17:44:53

Tagged date                      : UTC 2012-10-09 17:45:02


Audio

ID                               : 2

Format                           : AAC

Format/Info                      : Advanced Audio Codec

Format profile                   : LC

Codec ID                         : 40

Duration                         : 44mn 50s

Bit rate mode                    : Variable

Bit rate                         : 172 Kbps

Maximum bit rate                 : 246 Kbps

Channel(s)                       : 2 channels

Channel positions                : Front: L R

Sampling rate                    : 44.1 KHz

Compression mode                 : Lossy

Stream size                      : 55.0 MiB (25%)

Encoded date                     : UTC 2012-10-09 17:45:03

Tagged date                      : UTC 2012-10-09 17:45:08





Visiten mi Perfil Mas de  100 Rips de metales autentico.




http://www.identi.li/index.php?action=profile, user = Rafadeth











seguirme si les gustaron las minas Seguro Que si






Nosotras seguimos a RAFADETH  porque tu no?



Los Asesinatos Charles Manson
5 Puntos Score: 5/10
Visitas: 1833 Favoritos: 0
Ver los usuarios que votaron...
0 Comentarios Los Asesinatos Charles Manson
Este post no tiene comentarios. Sea el primero!
Para dejar un comentario Registrate! o.. eres ya usuario? Accede!