Asesinos en Serie Jeffrey Dahmer





Jeffrey Lionel Dahmer (mayo 21, 1960 hasta noviembre 28, 1994) fue un asesino en serie y agresores sexuales . Dahmer asesinó a 17 hombres y muchachos entre 1978 y 1991, con la mayoría de los asesinatos ocurridos entre 1987 y 1991. Sus asesinatos implicado la violación , mutilación , necrofilia y canibalismo . El 28 de noviembre de 1994 fue asesinado a golpes por un recluso en la Institución Correccional de Columbia , donde había sido encarcelado.








General

Format                           : MPEG-4

Format profile                   : Base Media / Version 2

Codec ID                         : mp42

File size                        : 224 MiB

Duration                         : 45mn 46s

Overall bit rate                 : 685 Kbps

Encoded date                     : UTC 2012-10-09 02:12:42

Tagged date                      : UTC 2012-10-09 02:13:15

Writing application              : mp4creator 1.6.1d


Video

ID                               : 1

Format                           : AVC

Format/Info                      : Advanced Video Codec

Format profile                   : [email protected]

Format settings, CABAC           : No

Format settings, ReFrames        : 1 frame

Codec ID                         : avc1

Codec ID/Info                    : Advanced Video Coding

Duration                         : 45mn 46s

Bit rate mode                    : Variable

Bit rate                         : 506 Kbps

Width                            : 480 pixels

Height                           : 368 pixels

Original height                  : 360 pixels

Display aspect ratio             : 4:3

Original display aspect ratio    : 4:3

Frame rate mode                  : Constant

Frame rate                       : 25.000 fps

Color space                      : YUV

Chroma subsampling               : 4:2:0

Bit depth                        : 8 bits

Scan type                        : Progressive

Bits/(Pixel*Frame)               : 0.115

Stream size                      : 166 MiB (74%)


Encoded date                     : UTC 2012-10-09 02:12:42

Tagged date                      : UTC 2012-10-09 02:13:11


Audio

ID                               : 2

Format                           : AAC

Format/Info                      : Advanced Audio Codec

Format profile                   : LC

Codec ID                         : 40

Duration                         : 45mn 45s

Bit rate mode                    : Variable

Bit rate                         : 177 Kbps

Maximum bit rate                 : 246 Kbps

Channel(s)                       : 2 channels

Channel positions                : Front: L R

Sampling rate                    : 44.1 KHz

Compression mode                 : Lossy

Stream size                      : 58.0 MiB (26%)

Encoded date                     : UTC 2012-10-09 02:13:14

Tagged date                      : UTC 2012-10-09 02:13:15




Visiten mi Perfil Mas de  100 Rips de metales autentico.




http://www.identi.li/index.php?action=profile, user = Rafadeth









http://www.mediafire.com/?voktk8j0i1fyyck,4jabxhh4cgpf3rt,0s7m8n7n689nrzo






seguirme si les gustaron las minas Seguro Que si









Nosotras seguimos a RAFADETH  porque tu no?







          
Asesinos en Serie Jeffrey Dahmer
10 Puntos Score: 5/10
Visitas: 2640 Favoritos: 2
Ver los usuarios que votaron...
10 Comentarios Asesinos en Serie Jeffrey Dahmer
muy bueno che no tenes mas aportes asi ?
me parece que te falta el link nro. dos? de todas maneras muy buen aporte
te falta el link nro. dos por fa  
@alena89 corregido gracias por avisar
descargando, gracias rafa
muy buen post amigazo
Chikatilo,Pichushkin y Dahmer son mis Favoritos
Para dejar un comentario Registrate! o.. eres ya usuario? Accede!