Oops.. Este post tiene los enlaces eliminados!

Identi revisa las denuncias de los usuarios en busca de enlaces eliminados que no dejan descargar los archivos, este mensaje te informa que este post que estas viendo tiene los enlaces eliminados.

Usa el Buscador

Por favor, te recomendamos que uses el buscador para encontrar más alternativas.

Asesinos en Serie Andrei Chikatilo Latino

  • Categoría: Reciclaje
  • Publicado hace más de 4 años




Andrei Chikatilo

Andrei Romanovich Chikatilo (en ruso: ??????? ?????????? ?????????) (* Yablochnoye, 16 de octubre de 1936 - Moscú, 16 de febrero de 1994) fue el único asesino en serie conocido de la Unión Soviética.
Su actividad criminal lo llevó a realizar al menos 53 asesinatos. Conocido como "el carnicero de Rostov", vivía una doble vida, como hombre casado trabajador y miembro de la sociedad comunista del momento, y como asesino dotado de gran habilidad para ganarse la confianza de los niños y disfrutar con impunidad de sus horrendos crímenes.
Hombre con problemas sexuales, impotente, vivió en Rostov del Don, ciudad a unos 800 km de Moscú, donde atrajo principalmente a sus víctimas. Actuaba principalmente en estaciones de ferrocarril y de autobuses. Después de doce años de actuar impunemente, finalmente fue descubierto en 1990.
En una ocasión estuvo detenido y al comparar su sangre con el semen encontrado en una víctima al no emparejar quedó en libertad. Otra vez libre continuó con sus crímenes.
Sin embargo los investigadores tenían la certeza de que él era la persona a la que buscaban, y al detectarlo en otra ocasión al salir de un bosque cerca de una estación confirmaron sus sospechas. Él comentaría más tarde: "Yo soy un error de la naturaleza, una bestia enfadada".
El best seller "El niño 44", escrito por Tom Rob Smith y cuyos derechos para el cine han sido adquiridos por Ridley Scott, se basa en parte en su caso, si bien la historia se sitúa décadas antes.









General


Format                           : MPEG-4
Format profile                   : Base Media / Version 2
Codec ID                         : mp42
File size                        : 213 MiB
Duration                         : 44mn 31s
Overall bit rate                 : 670 Kbps
Encoded date                     : UTC 2012-10-08 13:53:30
Tagged date                      : UTC 2012-10-08 13:53:47
Writing application              : mp4creator 1.6.1d

Video
ID                               : 1
Format                           : AVC
Format/Info                      : Advanced Video Codec
Format profile                   : [email protected]
Format settings, CABAC           : No
Format settings, ReFrames        : 1 frame
Codec ID                         : avc1
Codec ID/Info                    : Advanced Video Coding
Duration                         : 44mn 31s
Bit rate mode                    : Variable
Bit rate                         : 506 Kbps
Width                            : 624 pixels
Height                           : 352 pixels
Display aspect ratio             : 16:9
Original display aspect ratio    : 16:9
Frame rate mode                  : Constant
Frame rate                       : 25.000 fps
Color space                      : YUV
Chroma subsampling               : 4:2:0
Bit depth                        : 8 bits
Scan type                        : Progressive
Bits/(Pixel*Frame)               : 0.092
Stream size                      : 161 MiB (76%)
Encoded date                     : UTC 2012-10-08 13:53:30
Tagged date                      : UTC 2012-10-08 13:53:42

Audio
ID                               : 2
Format                           : AAC
Format/Info                      : Advanced Audio Codec
Format profile                   : LC
Codec ID                         : 40
Duration                         : 44mn 29s
Bit rate mode                    : Variable
Bit rate                         : 162 Kbps
Maximum bit rate                 : 232 Kbps
Channel(s)                       : 2 channels
Channel positions                : Front: L R
Sampling rate                    : 44.1 KHz
Compression mode                 : Lossy
Stream size                      : 51.5 MiB (24%)
Encoded date                     : UTC 2012-10-08 13:53:43
Tagged date                      : UTC 2012-10-08 13:53:47



Visiten mi Perfil Mas de  100 Rips de metales autentico.

















seguirme si les gustaron las minas Seguro Que si







Nosotras seguimos a RAFADETH  porque tu no?




Asesinos en Serie Andrei Chikatilo Latino
15 Puntos Score: 5/10
Visitas: 1609 Favoritos: 2
Ver los usuarios que votaron...
17 Comentarios Asesinos en Serie Andrei Chikatilo Latino
gran aporte amigo,no habra alguno de Ed Gein??
@rodrigolf  hace tiempo los baje ami me gusta mucho este tema creo por ahi andara alguno de el sin duda uno de lo mas perversos pero mi favorito es Albert fish deja los busco checa mi perfil tengo muchas mas cosas el pr?
Cita Rafadeth: Mostrar
Muy bueno, de vez en cuando le hecho una le?
Al principio no me interesaba la historia de Asesinos, pero despues me agarro la curiosidad por una canci?
entender la mente de estos asesinos es interesanto, sobre todo porque todos fueron ni?
@Marianoaxl  jaja el disco de este fantoche seria bueno escucharlo cuando menos estubo empapado de buen rock este Manson subelo seguro lo bajaran por puro morbo y sobre manson pues no me parece tan asesino serial era solo una mente manipuladora muy astuta pero bueno vere si todavia lo tengo hace un ratote los baje me intereso este tema hace tiempo incluso fui a una excibicion de asesinos seriales y conoci muchisimos detalles mas
sobre estros verdaderos mountruos de la sociedad pero la verdad me resulta interesante ver hasta donde llegan  
@Rafadeth   Fijate si lo encontr?
Cita Marianoaxl: Mostrar
Interesante aporte... se te agradece  
borraron los links.....sera que lop uedes cargar de nuevo...gracias
que capo que sos ya la estoy bajando  
sos un capo me bajo todas tus pelis  
tu puta madre todos los  de 1 o 2 link de todos tus videos estan muertos jodete ....carajo si kirees subir algo estate pendiente de que esten bien !
Para dejar un comentario Registrate! o.. eres ya usuario? Accede!