El Asesino de Green River Gary Ridgway






Gary Leon Ridgway nació en Salt Lake City, Utah el 18 de febrero de 1949 y se crió en Seattle, Washington. Su padre, Thomas Newton Ridgway, trabajaba como conductor de autobús que a menudo se quejó de las prostitutas que frecuentaban las calles en su ruta. Su madre, María Rita Ridgway (née Steinman), gobernó la casa y estaba física y mentalmente abusivo hacia Gary y también a sus dos hermanos, y Gregory Thomas Jr., e incluso de su marido. Gary era un frecuente cama-más mojado y también animales torturados, el bloqueo de un gato en un refrigerador hasta que murió en una ocasión. También podría disparar a los pájaros con una pistola de aire comprimido junto con sus hermanos. Tener un CI estimado de 82, lo hizo mal en la escuela, sino que incluso tuvo que rehacer un solo año escolar dos veces antes de que pudiera obtener calificaciones aprobatorias.

En 1963, 14 años, Gary intentó matar a un niño de 6 años por apuñalar a él, pero no fue capturado. Afirmó que había cometido su primer asesinato cuando era un adolescente, ahogando un chico joven, envolviendo sus piernas alrededor de él mientras nadaba y sosteniéndolo bajo el agua hasta que se ahogó. A la edad de 18 años, Gary se alistó en la Marina y sirvió a bordo de un barco de suministro en Vietnam. Poco después de graduarse de la escuela secundaria y antes de ser embarcados, se casó con una novia que se llama Claudia Barrows, pero se divorciaron en tan sólo un año, porque ambos tenían relaciones extramatrimoniales. Ridgway solicitó un trabajo como oficial de policía, pero fracasó. En su lugar, encontró trabajo como pintor de coches en una fábrica de camiones en Bellingham, Washington.

Ridgway se casó por segunda vez en diciembre de 1973, a una Marcia Winslow. Su unión fue breve y terminó también por la misma razón, aunque concebido un hijo, Matthew, juntos. Nació en 1975 y mantuvo una relación con su padre, quien le concedió los derechos de visita después del divorcio. Winslow afirmó más tarde que Gary vez la colocó en una estrangulación de retención. Durante su segundo matrimonio, Ridgway fue muy religioso y pasamos un montón de tiempo leyendo la Biblia, a veces en voz alta y en el trabajo, y fue movido a veces hasta las lágrimas por los sermones de la iglesia. Él también iba de puerta en puerta para su iglesia Pentecostal. En un contraste bastante fuerte para esto, a menudo solicitan favores sexuales de prostitutas y tenía un apetito sexual insaciable cercano, pidiendo sexo a sus novias y esposas varias veces al día. Poco después de Winslow lo dejó, fue detenido por intentar estrangular a una prostituta cerca de un aeropuerto. En abril de 1982, fue también arrestado por solicitar un oficial encubierto haciéndose pasar por una prostituta.

Alrededor de 1985, Ridgway comenzó a salir con una Judith Mawson y se casó con ella en 1988. Estuvieron casados ??aún en el momento de su detención final y compartieron una relación amorosa e íntima, declaró en una entrevista que él sentía menos de un impulso de matar mientras estaban juntos, lo que explicaría por qué mató tan pocas mujeres después de haber comenzado a saliendo. En 1998, Thomas Ridgway falleció después de una larga lucha contra el Alzheimer. María Ridgway murió de cáncer tres años más tarde.





General

 

Format                           : MPEG-4
Format profile                   : Base Media / Version 2
Codec ID                         : mp42
File size                        : 205 MiB
Duration                         : 43mn 8s
Overall bit rate                 : 663 Kbps
Encoded date                     : UTC 2012-10-08 03:08:54
Tagged date                      : UTC 2012-10-08 03:09:05
Writing application              : mp4creator 1.6.1d

Video
ID                               : 1
Format                           : AVC
Format/Info                      : Advanced Video Codec
Format profile                   : [email protected]
Format settings, CABAC           : No
Format settings, ReFrames        : 1 frame
Codec ID                         : avc1
Codec ID/Info                    : Advanced Video Coding
Duration                         : 43mn 8s
Bit rate mode                    : Variable
Bit rate                         : 504 Kbps
Width                            : 480 pixels
Height                           : 368 pixels
Original height                  : 360 pixels
Display aspect ratio             : 4:3
Original display aspect ratio    : 4:3
Frame rate mode                  : Constant
Frame rate                       : 25.000 fps
Color space                      : YUV
Chroma subsampling               : 4:2:0
Bit depth                        : 8 bits
Scan type                        : Progressive
Bits/(Pixel*Frame)               : 0.114
Stream size                      : 156 MiB (76%)
Encoded date                     : UTC 2012-10-08 03:08:54
Tagged date                      : UTC 2012-10-08 03:09:02

Audio
ID                               : 2
Format                           : AAC
Format/Info                      : Advanced Audio Codec
Format profile                   : LC
Codec ID                         : 40
Duration                         : 43mn 6s
Bit rate mode                    : Variable
Bit rate                         : 157 Kbps
Maximum bit rate                 : 267 Kbps
Channel(s)                       : 2 channels
Channel positions                : Front: L R
Sampling rate                    : 44.1 KHz
Compression mode                 : Lossy
Stream size                      : 48.3 MiB (24%)
Encoded date                     : UTC 2012-10-08 03:09:03
Tagged date                      : UTC 2012-10-08 03:09:05


Visiten mi Perfil Mas de  100 Rips de metales autentico.













seguirme si les gustaron las minas Seguro Que si




Nosotras seguimos a RAFADETH  porque tu no?





El Asesino de Green River Gary Ridgway
5 Puntos Score: 5/10
Visitas: 2342 Favoritos: 2
Ver los usuarios que votaron...
7 Comentarios El Asesino de Green River Gary Ridgway
Audio latido amigo? Gracias
@Sicxx si como lo pondria en chino todo es en latino
muchas gracias de nuevo amigo, espero que sigas subiendo mas documentales de asesinos en serie  
Que cosa mas horrible con estos asesinos, increible hasta donde llega la maldad del ser humano cuando es tomado por el demonio
a la cola de descargas, gracias rafa
Para dejar un comentario Registrate! o.. eres ya usuario? Accede!