Oops.. Este post tiene los enlaces eliminados!

Identi revisa las denuncias de los usuarios en busca de enlaces eliminados que no dejan descargar los archivos, este mensaje te informa que este post que estas viendo tiene los enlaces eliminados.

Usa el Buscador

Por favor, te recomendamos que uses el buscador para encontrar más alternativas.

Ovnis accidentes y secuestros en tierra

  • Categoría: Reciclaje
  • Publicado hace más de 4 años







Buenas tardes hoy aporte este mini documental de extraterrestres  ovnis y esas cosas que seguramente  no los dejaran dormir comenten dejen puntos y esten atentos al cielo 


General


Format                           : MPEG-4
Format profile                   : Base Media / Version 2
Codec ID                         : mp42
File size                        : 338 MiB
Duration                         : 49mn 2s
Overall bit rate                 : 964 Kbps
Encoded date                     : UTC 2012-10-07 19:04:40
Tagged date                      : UTC 2012-10-07 19:05:14
Writing application              : mp4creator 1.6.1d

Video
ID                               : 1
Format                           : AVC
Format/Info                      : Advanced Video Codec
Format profile                   : [email protected]
Format settings, CABAC           : No
Format settings, ReFrames        : 1 frame
Codec ID                         : avc1
Codec ID/Info                    : Advanced Video Coding
Duration                         : 49mn 2s
Bit rate mode                    : Variable
Bit rate                         : 773 Kbps
Width                            : 720 pixels
Height                           : 480 pixels
Display aspect ratio             : 4:3
Frame rate mode                  : Constant
Frame rate                       : 24.000 fps
Standard                         : NTSC
Color space                      : YUV
Chroma subsampling               : 4:2:0
Bit depth                        : 8 bits
Scan type                        : Progressive
Bits/(Pixel*Frame)               : 0.093
Stream size                      : 271 MiB (80%)
Encoded date                     : UTC 2012-10-07 19:04:40
Tagged date                      : UTC 2012-10-07 19:05:03

Audio
ID                               : 2
Format                           : AAC
Format/Info                      : Advanced Audio Codec
Format profile                   : LC
Codec ID                         : 40
Duration                         : 49mn 1s
Bit rate mode                    : Variable
Bit rate                         : 192 Kbps
Maximum bit rate                 : 242 Kbps
Channel(s)                       : 2 channels
Channel positions                : Front: L R
Sampling rate                    : 44.1 KHz
Compression mode                 : Lossy
Stream size                      : 66.5 MiB (20%)
Encoded date                     : UTC 2012-10-07 19:05:04
Tagged date                      : UTC 2012-10-07 19:05:14

Visiten mi Perfil Mas de  100 Rips de metales autentico.











seguirme si les gustaron las minas Seguro Que si



Nosotras seguimos a RAFADETH  porque tu no?



Ovnis accidentes y secuestros en tierra
0 Puntos Score: 0/10
Visitas: 1990 Favoritos: 5
13 Comentarios Ovnis accidentes y secuestros en tierra
Me llevo  a las chicas  

Interesante tema,gracias por compartir.
se ve muy interesante, vamos a ver y muchas gracias.
Hola men me gustaria saber que tiempo de duracion tiene el video y que idioma tiene el audio, muchas gracias  
lastima me marca link muerto, gracias como quiera

De q juego es esta, buen post  
descargando  
@Sicxx Duration                         : 49mn 2s latino

ojala me secuestrara yo una de esas no la devuelvo ni para cuando mexico salga campeon mundial
Este documental lo vi hace tiempo y de ahi ni mas, ahora si me lo descargo ya que es uno de los pocos que se hace en nuestra regi?
este documental es de un programa que se llamaba "Ovnis" el cual daban en un canal de tv chileno, son varios capitulos algunos bastante interesantes.
y la musica era lo mejor!  
Para dejar un comentario Registrate! o.. eres ya usuario? Accede!