Oops.. Este post tiene los enlaces eliminados!

Identi revisa las denuncias de los usuarios en busca de enlaces eliminados que no dejan descargar los archivos, este mensaje te informa que este post que estas viendo tiene los enlaces eliminados.

Usa el Buscador

Por favor, te recomendamos que uses el buscador para encontrar más alternativas.

Warlock Live in London 1985 Rip

  • Categoría: Reciclaje
  • Publicado hace más de 4 años









 Agradecimiento especial al  Mantecas que me facilito este material disfruten Kulebros Petardos a descargar  

General
            
Format                           : MPEG-4

Format profile                   : Base Media / Version 2

Codec ID                         : mp42

File size                        : 278 MiB

Duration                         : 1h 2mn

Overall bit rate                 : 627 Kbps

Encoded date                     : UTC 2012-04-21 02:35:12

Tagged date                      : UTC 2012-04-21 02:35:12

gsst                             : 0

gstd                             : 3721623

gssd                             :54678646

Video

ID                               : 1

Format                           : AVC

Format/Info                      : Advanced Video Codec

Format profile                   : [email protected]

Format settings, CABAC           : No

Format settings, ReFrames        : 1 frame

Format settings, GOP             : M=1, N=60

Codec ID                         : avc1

Codec ID/Info                    : Advanced Video Coding

Duration                         : 1h 2mn

Bit rate mode                    : Variable

Bit rate                         : 528 Kbps

Maximum bit rate                 : 1 145 Kbps

Width                            : 480 pixels

Height                           : 360 pixels

Display aspect ratio             : 4:3

Frame rate mode                  : Constant

Frame rate                       : 25.000 fps

Color space                      : YUV

Chroma subsampling               : 4:2:0

Bit depth                        : 8 bits

Scan type                        : Progressive

Bits/(Pixel*Frame)               : 0.122

Stream size                      : 234 MiB (84%)

Tagged date                      : UTC 2012-04-21 02:35:14


Audio

ID                               : 2

Format                           : AAC

Format/Info                      : Advanced Audio Codec

Format profile                   : LC

Codec ID                         : 40

Duration                         : 1h 2mn

Bit rate mode                    : Variable

Bit rate                         : 96.0 Kbps

Maximum bit rate                 : 147 Kbps

Channel(s)                       : 2 channels

Channel positions                : Front: L R

Sampling rate                    : 44.1 KHz

Compression mode                 : Lossy

Stream size                      : 42.6 MiB (15%)

Title                            : 5-11-2011

Encoded date                     : UTC 2012-04-21 02:35:13

Tagged date                      : UTC 2012-04-21 02:35:14








Visiten mi Perfil Mas de  100 Rips de metales autentico.





http://www.identi.li/index.php?action=profile, user = Rafadeth



http://www.mediafire.com/?ml34juu5lqlkbz5,gptrrt3oxfp54jf



seguirme si les gustaron las minas Seguro Que si




Nosotras seguimos a RAFADETH  porque tu no?

Warlock Live in London 1985 Rip
15 Puntos Score: 7.5/10
Visitas: 676 Favoritos: 0
Ver los usuarios que votaron...
5 Comentarios Warlock Live in London 1985 Rip
buen aporte amigo bajando  
Que diosa Doro!! Excelente material!!!
mmmm Doro!!! que bueno que si lo subiste
perdon amigo por no pasar hace dias, estoy muy concentrado subiendo series, sigo amando el metal pero estoy un poco decepcionado con la gente,te esforzas subiendo material y siempre son 3 o 4 los que te agradecen, vos lo sabes  saludos y gracias por tus aportes!!!!!
Para disfrutar un buen rato Gracias...............
Para dejar un comentario Registrate! o.. eres ya usuario? Accede!