Río Roma - Por Eso Te Amo (FullHD 1080P)MF-PLocker


Hola a todos!!!  Aqui les traigo el video musical EXCLUSIVO FullHD de Rio Roma-Por Eso te Amo, un tema muy romántico, el tema que se escucha actualmente, tema exclusivo musical ByJonna087.

La letra de ?Por eso te amo? arranca suspiros, y el nuevo video para esta canción no podía quedarse atrás. Su historia nos hace recordar momentos felices, al mostrar lo mejor de la vida en pareja justo en el punto en que el enamoramiento es pleno. Una gran fotografía y escenarios naturales al aire libre, sirven como los complementos visuales del videoclip.


----------------------------------------------------------------------------------------------
Capturas: 

-Datos Técnicos:
General[/left]Complete name                    : Río Roma - Por Eso Te Amo(1080p_H.264-AAC).mp4[/left]Format                           : MPEG-4[/left]Format profile                   : Base Media / Version 2[/left]Codec ID                         : mp42[/left]File size                        : 80.1 MiB[/left]Duration                         : 3mn 22s[/left]Overall bit rate                 : 3 315 Kbps[/left]Encoded date                     : UTC 2012-06-21 19:17:51[/left]Tagged date                      : UTC 2012-06-21 19:17:51[/left]gsst                             : 0[/left]gstd                             : 202871[/left]gssd                             : BBEDDA206MM1347650679522207[/left]gshh                             : o-o---preferred---cti-aep1---v15---lscache2.c.youtube.com[/left][/left]Video[/left]ID                               : 1[/left]Format                           : AVC[/left]Format/Info                      : Advanced Video Codec[/left]Format profile                   : [email protected][/left]Format settings, CABAC           : Yes[/left]Format settings, ReFrames        : 1 frame[/left]Codec ID                         : avc1[/left]Codec ID/Info                    : Advanced Video Coding[/left]Duration                         : 3mn 22s[/left]Bit rate mode                    : Variable[/left]Bit rate                         : 3 161 Kbps[/left]Maximum bit rate                 : 8 881 Kbps[/left]Width                            : 1 920 pixels[/left]Height                           : 1 080 pixels[/left]Display aspect ratio             : 16:9[/left]Frame rate mode                  : Constant[/left]Frame rate                       : 23.976 fps[/left]Color space                      : YUV[/left]Chroma subsampling               : 4:2:0[/left]Bit depth                        : 8 bits[/left]Scan type                        : Progressive[/left]Bits/(Pixel*Frame)               : 0.064[/left]Stream size                      : 76.4 MiB (95%)[/left]Tagged date                      : UTC 2012-06-21 19:17:51[/left][/left]Audio[/left]ID                               : 2[/left]Format                           : AAC[/left]Format/Info                      : Advanced Audio Codec[/left]Format profile                   : LC[/left]Codec ID                         : 40[/left]Duration                         : 3mn 22s[/left]Bit rate mode                    : Variable[/left]Bit rate                         : 151 Kbps[/left]Maximum bit rate                 : 209 Kbps[/left]Channel(s)                       : 2 channels[/left]Channel positions                : Front: L R[/left]Sampling rate                    : 44.1 KHz[/left]Compression mode                 : Lossy[/left]Stream size                      : 3.66 MiB (5%)[/left]Title                            : IsoMedia File Produced by Google, 5-11-2011[/left]Encoded date                     : UTC 2012-06-21 19:17:51[/left]Tagged date                      : UTC 2012-06-21 19:17:51------------------------------------------------------------------------------------------- 




[/size][/color]




 




¡¡¡¡¡¡¡Saludos y disfruten!!!!!!!!
Río Roma - Por Eso Te Amo (FullHD 1080P)MF-PLocker
0 Puntos Score: 0/10
Visitas: 2626 Favoritos: 0
2 Comentarios Río Roma - Por Eso Te Amo (FullHD 1080P)MF-PLocker
Para dejar un comentario Registrate! o.. eres ya usuario? Accede!