Oops.. Este post tiene los enlaces eliminados!

Identi revisa las denuncias de los usuarios en busca de enlaces eliminados que no dejan descargar los archivos, este mensaje te informa que este post que estas viendo tiene los enlaces eliminados.

Usa el Buscador

Por favor, te recomendamos que uses el buscador para encontrar más alternativas.

John Petrucci Rock Discipline Subtitulado

  • Categoría: Reciclaje
  • Publicado hace más de 4 años













Rock Discipline es uno de los mejores vídeos didácticos para guitarristas editados hasta la fecha. Cubre un amplio rango de contenidos, desde estiramientos de brazos y manos hasta técnicas de sweepicking o ligados, pasando por un sinfín de ejercicios útiles. Es uno de los pocos vídeos que realmente están pensados para que el que los vea desarrolle su forma de tocar la guitarra, en vez de copiar licks o riffs de otros músicos.
Denota esencial el uso del metrónomo para la práctica y perfeccionamiento de la técnica, que requiere constancia y mucho trabajo, y con el Rock Discipline se trabaja en ese ámbito. Desde luego, por eso se llama Disciplina del Rock.
Sin duda es el más recomendable de los vídeos didácticos para todos aquellos que busquen ejercicios que ayuden a mejorar su lenguaje con la guitarra
General

Format                           : AVI

Format/Info                      : Audio Video Interleave

File size                        : 584 MiB

Duration                         : 1h 57mn

Overall bit rate                 : 694 Kbps

Writing application              : MEncoder SVN-r30881(20100311-gcc4.3.3)

Writing library                  : MPlayer

Video

ID                               : 0

Format                           : AVC

Format/Info                      : Advanced Video Codec

Format profile                   : [email protected]

Format settings, CABAC           : No

Format settings, ReFrames        : 1 frame

Codec ID                         : avc1

Duration                         : 1h 57mn

Bit rate                         : 486 Kbps

Width                            : 480 pixels

Height                           : 360 pixels

Display aspect ratio             : 4:3

Frame rate                       : 25.000 fps

Color space                      : YUV

Chroma subsampling               : 4:2:0

Bit depth                        : 8 bits

Scan type                        : Progressive

Bits/(Pixel*Frame)               : 0.112

Stream size                      : 412 MiB (71%)

Audio

ID                               : 1

Format                           : MPEG Audio

Format version                   : Version 1

Format profile                   : Layer 3

Mode                             : Joint stereo

Mode extension                   : MS Stereo

Codec ID                         : 55

Codec ID/Hint                    : MP3

Duration                         : 1h 57mn

Bit rate mode                    : Constant

Bit rate                         : 192 Kbps

Channel(s)                       : 2 channels

Sampling rate                    : 44.1 KHz

Compression mode                 : Lossy

Stream size                      : 162 MiB (28%)

Alignment                        : Aligned on interleaves

Interleave, duration             : 26 ms (0.65 video frame)

Interleave, preload duration     : 522 ms

Writing library                  : LAME3.98



Visiten mi Perfil Mas de  100 Rips de metales autentico.




http://www.identi.li/index.php?action=profile, user = Rafadeth



http://www.mediafire.com/?ygn0s8qbdtd90cc,xzw4cnoi5z7scl8,79fx391w1bnufya,hgerjtd35u6686c


seguirme si les gustaron las minas Seguro Que si




Nosotras seguimos a RAFADETH  porque tu no?


John Petrucci Rock Discipline Subtitulado
5 Puntos Score: 5/10
Visitas: 1480 Favoritos: 5
Ver los usuarios que votaron...
7 Comentarios John Petrucci Rock Discipline Subtitulado
De lujo brother.... a ver si mejoro mis mediocres resultados... gracias...
Cita octavio71: Mostrar
igual yo lo bajo gracias
esta buenisimo, no sabes si hay mas similares donde ense?
Cita partyclu: Mostrar
Cita ravenlack: Mostrar
http://www.foreverjoe.com/lessons.htm
una pagina de joe, con articulos descargable, esta en ingles, pero creo ke algo mejor, dificilmente vas a encontrar.
Para dejar un comentario Registrate! o.. eres ya usuario? Accede!