Laura Pausini-Jamás abandoné(720P HD) PutLocker-MF


Hola a todos!!! Aqui les traigo el video musical HD de Laura Paussini-Jamas te abandone, un tema muy bueno, el tema que se escucha bastante en Mexico, tema musical usado en Amor Bravio-TELEVISA actualmente.




----------------------------------------------------------------------------------------------

Capturas:


-------------------------------------------------------------------------------------------
General
Complete name                    : Laura Pausini - Jamás abandoné (videoclip)(720p_H.264-AAC).mp4
Format                           : MPEG-4
Format profile                   : Base Media / Version 2
Codec ID                         : mp42
File size                        : 59.4 MiB
Duration                         : 3mn 29s
Overall bit rate                 : 2 376 Kbps
Encoded date                     : UTC 2011-11-21 09:07:35
Tagged date                      : UTC 2011-11-21 09:07:35
gsst                             : 0
gstd                             : 209838
gssd                             : BBEDDA204HH1345958914677833
gshh                             : o-o---preferred---cti-aep1---v1---lscache8.c.youtube.com

Video
ID                               : 1
Format                           : AVC
Format/Info                      : Advanced Video Codec
Format profile                   : [email protected]
Format settings, CABAC           : Yes
Format settings, ReFrames        : 1 frame
Codec ID                         : avc1
Codec ID/Info                    : Advanced Video Coding
Duration                         : 3mn 29s
Bit rate mode                    : Variable
Bit rate                         : 2 222 Kbps
Maximum bit rate                 : 14.8 Mbps
Width                            : 1 280 pixels
Height                           : 720 pixels
Display aspect ratio             : 16:9
Frame rate mode                  : Constant
Frame rate                       : 25.000 fps
Color space                      : YUV
Chroma subsampling               : 4:2:0
Bit depth                        : 8 bits
Scan type                        : Progressive
Bits/(Pixel*Frame)               : 0.096
Stream size                      : 55.6 MiB (94%)
Tagged date                      : UTC 2011-11-21 09:07:36

Audio
ID                               : 2
Format                           : AAC
Format/Info                      : Advanced Audio Codec
Format profile                   : LC
Codec ID                         : 40
Duration                         : 3mn 29s
Bit rate mode                    : Variable
Bit rate                         : 151 Kbps
Maximum bit rate                 : 215 Kbps
Channel(s)                       : 2 channels
Channel positions                : Front: L R
Sampling rate                    : 44.1 KHz
Compression mode                 : Lossy
Stream size                      : 3.78 MiB (6%)
Title                            : IsoMedia File Produced by Google, 5-11-2011
Encoded date                     : UTC 2011-11-21 09:07:36
Tagged date                      : UTC 2011-11-21 09:07:36

-------------------------------------------------------------------------------------------











Saludos y disfruten
Laura Pausini-Jamás abandoné(720P HD) PutLocker-MF
0 Puntos Score: 0/10
Visitas: 1886 Favoritos: 2
6 Comentarios Laura Pausini-Jamás abandoné(720P HD) PutLocker-MF
MUCHAS gracias y gracias por ponerlo en PutLocker   saludos  
Amigo no lo pusiste en  PutLocker  
Cita kiko615: Mostrar
Hola, que raro lo HABIA PUESTO, RECIEN ME FIJO Y NO ESTABA SOLO E DE MEDIAFIRE. PERO YA ESTA CORREGIDO!!!!!!!!!!!!!!!!!!!!
CORREGIDO EL LINK DE PUTLOCKER. DISCULPEN MOLESTIAS,,,,,, SALUDOSSSSSS
Muchas gracias no pasa nada amigo  
ahora si ,amigo.Gracias.
Para dejar un comentario Registrate! o.. eres ya usuario? Accede!