Oops.. Este post tiene los enlaces eliminados!

Identi revisa las denuncias de los usuarios en busca de enlaces eliminados que no dejan descargar los archivos, este mensaje te informa que este post que estas viendo tiene los enlaces eliminados.

Usa el Buscador

Por favor, te recomendamos que uses el buscador para encontrar más alternativas.

Michael Romeo The Guitar Chapter Rip

  • Categoría: Reciclaje
  • Publicado hace más de 4 años












HOLA Y ADIOS NO TENGO GANAS DE COMENTAR AHI DESCARGUEN COMENTEN Y SOBRE TODO DEJEN PUNTOS PETARDOS


General

Format                           : MPEG-4

Format profile                   : Base Media / Version 2

Codec ID                         : mp42

File size                        : 214 MiB

Duration                         : 45mn 24s

Overall bit rate                 : 659 Kbps

Encoded date                     : UTC 2012-10-03 16:59:09

Tagged date                      : UTC 2012-10-03 17:00:04

Writing application              : mp4creator 1.6.1d


Video

ID                               : 1

Format                           : MPEG-4 Visual

Format profile                   : [email protected]

Format settings, BVOP            : No

Format settings, QPel            : No

Format settings, GMC             : No warppoints

Format settings, Matrix          : Default (H.263)

Codec ID                         : 20

Duration                         : 45mn 24s

Bit rate mode                    : Variable

Bit rate                         : 557 Kbps

Maximum bit rate                 : 1 440 Kbps

Width                            : 352 pixels

Height                           : 240 pixels

Display aspect ratio             : 3:2

Frame rate mode                  : Variable

Frame rate                       : 29.930 fps

Minimum frame rate               : 29.920 fps

Maximum frame rate               : 29.930 fps

Standard                         : NTSC

Color space                      : YUV

Chroma subsampling               : 4:2:0

Bit depth                        : 8 bits

Scan type                        : Progressive

Compression mode                 : Lossy

Bits/(Pixel*Frame)               : 0.220

Stream size                      : 181 MiB (85%)

Language                         : English

Encoded date                     : UTC 2012-10-03 16:59:09

Tagged date                      : UTC 2012-10-03 16:59:44


Audio

ID                               : 2

Format                           : AAC

Format/Info                      : Advanced Audio Codec

Format profile                   : LC

Codec ID                         : 40

Duration                         : 45mn 24s

Bit rate mode                    : Variable

Bit rate                         : 99.4 Kbps

Maximum bit rate                 : 123 Kbps

Channel(s)                       : 2 channels

Channel positions                : Front: L R

Sampling rate                    : 44.1 KHz

Compression mode                 : Lossy

Stream size                      : 32.3 MiB (15%)

Language                         : English

Encoded date                     : UTC 2012-10-03 16:59:58

Tagged date                      : UTC 2012-10-03 17:00:0




Visiten mi Perfil Mas de 100 Rips de metales autentico




http://www.identi.li/index.php?action=profile, user = Rafadeth



http://www.mediafire.com/?kw87j8y98s1hn0j,34922a916z22x2a,yb0e1cbwm93y80z


seguirme si les gustaron las minas Seguro Que si



Nosotras seguimos a RAFADETH  porque tu no?


Michael Romeo The Guitar Chapter Rip
10 Puntos Score: 5/10
Visitas: 971 Favoritos: 4
Ver los usuarios que votaron...
13 Comentarios Michael Romeo The Guitar Chapter Rip
michael romeo es el dios del virtuosismo y el proximo a?
rafa tiene subtitulos en espa?
@THECURE  no mi hermano los busque pero nada el proximo si los traera el petrucci
amigo ya tengo el:  Guitar Lesson - John Petrucci
@THECURE que lastima aun asi subire mi propia version jejejje
@THECURE skip          eeeeeeeeeeeeeeeeeeeeeeeeeeeeeeeeeeeeeeee
Este chabon es un Crack de Crackes... me hiciste recordar que tengo que subir la discograf?
@Mael muy buena creo dejare de subir cosas chicos @THECURE medifire esta que me bota con puros faileds las subidas ojalas vuelva mega  :up hoy tenia 2 rips mas y asi no puedo subir
Cita Rafadeth: Mostrar

YO ANDO IGUAL RAFA NO HE PODIDO TERMINAR DE SUBIR UNAS MIERDAS
@Rafadeth HOLA AMIGO SOY SEBA_OSCAR ME BANEARON LA CUENTA POR UNA CONFUCION QUE YA ACLARE POR FABOR AYUDENME PARA QUE VUELVAN ACTIVAR MI CUENTA LOS QUE ME CONOCEN SABEN QUE NO SOY MALA PERSONA Y QUE COMPARTO TODO CON USTEDES AMIGOS Y QUIERO SEGUIR HACIENDOLO POR FABOR HABLEN CON LOS ADMIN Y AYUDENME.ME BLOQUERON POR CUENTAS CLON PERO YA ACLARE QUE ES POR QUE YO LES DOY INTERNET A MI PRIMO Y HERMANO A SUS COMPUTADORAS Y TENGO SI O SI COMPARTIR MI IP PARA QUE ELLOS PUEDAN TENER INTERNET POR ESO SE GENERO LA CONFUCION Y ME BANEARON.POR FABOR AYUDENME
@Rafadeth este es el tema amigo lo creo un usuario para ayudarme entra lee y comenta http://www.identi.li/?action=comunidades;sa=verpost;id=9840#rsp_44482
Para dejar un comentario Registrate! o.. eres ya usuario? Accede!