Oops.. Este post tiene los enlaces eliminados!

Identi revisa las denuncias de los usuarios en busca de enlaces eliminados que no dejan descargar los archivos, este mensaje te informa que este post que estas viendo tiene los enlaces eliminados.

Usa el Buscador

Por favor, te recomendamos que uses el buscador para encontrar más alternativas.

Megadeth Maquinaria Festival Chile 2011 Rip

  • Categoría: Reciclaje
  • Publicado hace más de 4 años
















HOLA Y ADIOS NO TENGO GANAS DE COMENTAR AHI DESCARGEN COMENTEN Y SOBRE TODO DEJEN PUNTOS PETARDOS:P


General

Format                           : MPEG-4

Codec ID                         : M4V

File size                        : 301 MiB

Duration                         : 57mn 45s

Overall bit rate                 : 730 Kbps

widt                             : (Binary)

heig                             : (Binary)


Video

ID                               : 1

Format                           : AVC

Format/Info                      : Advanced Video Codec

Format profile                   : [email protected]

Format settings, CABAC           : No

Format settings, ReFrames        : 1 frame

Format settings, GOP             : M=1, N=60

Codec ID                         : avc1

Codec ID/Info                    : Advanced Video Coding

Duration                         : 57mn 45s

Bit rate mode                    : Variable

Bit rate                         : 631 Kbps

Maximum bit rate                 : 1 805 Kbps

Width                            : 640 pixels

Height                           : 360 pixels

Display aspect ratio             : 16:9

Frame rate mode                  : Variable

Frame rate                       : 29.970 fps

Minimum frame rate               : 29.528 fps

Maximum frame rate               : 30.426 fps

Color space                      : YUV

Chroma subsampling               : 4:2:0

Bit depth                        : 8 bits

Scan type                        : Progressive

Bits/(Pixel*Frame)               : 0.091

Stream size                      : 261 MiB (86%)


Audio

ID                               : 2

Format                           : AAC

Format/Info                      : Advanced Audio Codec

Format profile                   : LC

Codec ID                         : 40

Duration                         : 57mn 45s

Bit rate mode                    : Constant

Bit rate                         : 96.0 Kbps

Channel(s)                       : 2 channels

Channel positions                : Front: L R

Sampling rate                    : 44.1 KHz

Compression mode                 : Lossy

Stream size                      : 39.8 MiB (13%)



Visiten mi Perfil Mas de 100 Rips de metal autentico




http://www.identi.li/index.php?action=profile, user = Rafadeth






http://www.mediafire.com/?wu6bi7rkeua8xa7,e599ocn3nz9qt7z,o7xvx9njp9jnhxi




seguirme si les gustaron las minas Seguro Que si



Nosotras seguimos a RAFADETH  porque tu no?




Megadeth Maquinaria Festival Chile 2011 Rip
30 Puntos Score: 7.5/10
Visitas: 597 Favoritos: 0
Ver los usuarios que votaron...
5 Comentarios Megadeth Maquinaria Festival Chile 2011 Rip
mendigo rafa este no lo tengo
Buenos recuerdos... esto lo vi en vivo y en directo.... Graciasss
gracias por tus aportes como siempre magnificos
Muy Buenos Aportes Como Siempre @Rafadeth   Muchisimas Gracias
gracias amigo  
Para dejar un comentario Registrate! o.. eres ya usuario? Accede!