educap
"Por qué algo y no más bien nada?"

1993-El secreto de Sally-Castillos de naipes



Hermosa peli sobre el autismo
















Género:
Drama

País:
Estados Unidos

Duración:
109 Minutos

Año:
1993


Director:
 Michael Lessac


Guión:
 Michael Lessac
 Robert Jay Litz


Interpretes:
 Asha Menina
 Esther Rolle
 Kathleen Turner
 Park Overall
 Shiloh Strong
 Tommy Lee Jones


Productor:
 Dale Pollock
 Lianne Halfon
 Wolfgang Glattes


Música:
 James Horner


Fotografía:
 Victor Hammer


Montaje:
 Walter Murch


Sinopsis:

Sally es una niña talentosa, fascimantemente inteligente, hija de un arqueólogo, quien muere a causa de una caída en una excavación arqueológica. Sally reacciona a la muerte de una manera muy extraña, como si se hubiera perdido en su propia mente. Cada día, su condición empeora y su madre decide llevarla a ver a Jake (Tommy Lee Jones), un experto en perturbaciones de niños. Jake intenta los métodos tradicionales y diagnostica a Sally como autista, pero Ruth no acepta perder a su hija y, a riesgo de su propia salud mental, escoge un camino poco ortodoxo para poder llegar a entender a Sally.








General
Complete name                    : E:1993-El secreto de Sally -castillos de naipes.avi
Format                           : AVI
Format/Info                      : Audio Video Interleave
File size                        : 1.32 GiB
Duration                         : 1h 44mn
Overall bit rate                 : 1 809 Kbps
Writing application              : VirtualDubMod 1.5.4.1 (build 2178/release)
Writing library                  : VirtualDubMod build 2178/release
Video
ID                               : 0
Format                           : MPEG-4 Visual
Format profile                   : Advanced [email protected]
Format settings, BVOP            : 1
Format settings, QPel            : No
Format settings, GMC             : No warppoints
Format settings, Matrix          : Custom
Codec ID                         : XVID
Codec ID/Hint                    : XviD
Duration                         : 1h 44mn
Bit rate                         : 1 493 Kbps
Width                            : 560 pixels
Height                           : 416 pixels
Display aspect ratio             : 4:3
Frame rate                       : 25.000 fps
Color space                      : YUV
Chroma subsampling               : 4:2:0
Bit depth                        : 8 bits
Scan type                        : Progressive
Compression mode                 : Lossy
Bits/(Pixel*Frame)               : 0.256
Stream size                      : 1.09 GiB (83%)
Writing library                  : XviD 1.2.1 (UTC 2008-12-04)
Audio #1
ID                               : 1
Format                           : AC-3
Format/Info                      : Audio Coding 3
Mode extension                   : CM (complete main)
Codec ID                         : 2000
Duration                         : 1h 44mn
Bit rate mode                    : Constant
Bit rate                         : 192 Kbps
Channel(s)                       : 2 channels
Channel positions                : Front: L R
Sampling rate                    : 48.0 KHz
Bit depth                        : 16 bits
Compression mode                 : Lossy
Stream size                      : 143 MiB (11%)
Alignment                        : Aligned on interleaves
Interleave, duration             : 96 ms (2.40 video frames)
Interleave, preload duration     : 96 ms
Language                         : Spanish
Audio #2
ID                               : 2
Format                           : MPEG Audio
Format version                   : Version 1
Format profile                   : Layer 3
Mode                             : Joint stereo
Mode extension                   : MS Stereo
Codec ID                         : 55
Codec ID/Hint                    : MP3
Duration                         : 1h 44mn
Bit rate mode                    : Variable
Bit rate                         : 109 Kbps
Nominal bit rate                 : 128 Kbps
Channel(s)                       : 2 channels
Sampling rate                    : 48.0 KHz
Compression mode                 : Lossy
Stream size                      : 81.1 MiB (6%)
Alignment                        : Aligned on interleaves
Interleave, duration             : 24 ms (0.60 video frame)
Interleave, preload duration     : 547 ms
Writing library                  : LAME3.98r
Encoding settings                : -m j -V 4 -q 2 -lowpass 17 --abr 128
Language                         : English












Avi xvid
Español de españa! No la consigo en latino, en ingles no la busqué
1.5 GB
Host Mega
Uploader educap













educap














1993-El secreto de Sally-Castillos de naipes
0 Puntos Score: 0/10
Visitas: 3601 Favoritos: 2
12 Comentarios 1993-El secreto de Sally-Castillos de naipes
Gracias, bajando...
Cita rponceb: Mostrar
de nada, hermosa peli, pensativa, mirala diez veces, mirala por las personas que no la van a ver....  
Lastima en espa?
Cita Camilla: Mostrar
Cita educap: Mostrar
Cita Camilla: Mostrar
Que pena el link esta caido!!! sera mucho pedir que la re subas?
Cita lacolo256: Mostrar
ahi la resub?
Un millon de gracias!!!!!!!!!!!!
Holaaaa puse a descargar y la parte 3 me salta error te fijarias y la arreglarias gracias!!!!todo bien salvo la 3
Cita lacolo256: Mostrar
volve a cargar los enlaces, no s?
gracias otra vez !!! todo  
Para dejar un comentario Registrate! o.. eres ya usuario? Accede!