Oops.. Este post tiene los enlaces eliminados!

Identi revisa las denuncias de los usuarios en busca de enlaces eliminados que no dejan descargar los archivos, este mensaje te informa que este post que estas viendo tiene los enlaces eliminados.

Usa el Buscador

Por favor, te recomendamos que uses el buscador para encontrar más alternativas.

Motörhead Live Rock Am Ring 2010 Rip

  • Categoría: Reciclaje
  • Publicado hace más de 4 años











Buenos muchachos antes de ir a distraerme como ya saben mi aporte diario bueno sin explicar mas ya saben  Motörhead eso es todo comenten y dejen TODO SUS PUNTOS DE HOY:P

General

Format                           : MPEG-4

Format profile                   : Base Media / Version 2

Codec ID                         : mp42

File size                        : 350 MiB

Duration                         : 1h 12mn

Overall bit rate                 : 690 Kbps


Video

ID                               : 1

Format                           : AVC

Format/Info                      : Advanced Video Codec

Format profile                   : [email protected]

Format settings, CABAC           : No

Format settings, ReFrames        : 1 frame

Format settings, GOP             : M=1, N=60

Codec ID                         : avc1

Codec ID/Info                    : Advanced Video Coding

Duration                         : 1h 12mn

Bit rate mode                    : Variable

Bit rate                         : 591 Kbps

Maximum bit rate                 : 2 271 Kbps

Width                            : 634 pixels

Height                           : 360 pixels

Display aspect ratio             : 16:9

Frame rate mode                  : Constant

Frame rate                       : 25.000 fps

Color space                      : YUV

Chroma subsampling               : 4:2:0

Bit depth                        : 8 bits

Scan type                        : Progressive

Bits/(Pixel*Frame)               : 0.104

Stream size                      : 306 MiB (86%)

Tagged date                      : UTC 2011-10-29 00:56:30


Audio

ID                               : 2

Format                           : AAC

Format/Info                      : Advanced Audio Codec

Format profile                   : LC

Codec ID                         : 40

Duration                         : 1h 12mn

Bit rate mode                    : Variable

Bit rate                         : 96.0 Kbps

Maximum bit rate                 : 119 Kbps

Channel(s)                       : 2 channels

Channel positions                : Front: L R

Sampling rate                    : 44.1 KHz

Compression mode                 : Lossy

Stream size                      : 49.6 MiB (14%)



Visiten mi Perfil Mas de 90Rips de metales autentico




http://www.identi.li/index.php?action=profile, user = Rafadeth






http://www.mediafire.com/?87mbxi6ei1eddhq,eau8cyqc15hmv78,dwqj1p446a0tsz5,4tg92u3laujujzg




seguirme si les gustaron las minas Seguro Que si



Nosotras seguimos a RAFADETH  porque tu no?


Motörhead Live Rock Am Ring 2010 Rip
30 Puntos Score: 6/10
Visitas: 853 Favoritos: 0
Ver los usuarios que votaron...
13 Comentarios Motörhead Live Rock Am Ring 2010 Rip
Genial aporte, gran banda!!!!  
La mtv bancando a motorhead en el 2010??? que raro...gracias x el aporte
sale escuchar a bigotes
YEAHHHHHHHHHHH PAPA!! ROCKANROLL!!!
Excelente Aporte! Mi proximo megapost es de Motorhead, estate atento...
Pasate a ver el de ACDC...saludos

Que sea rocK!
buenisimo loco!!!!!aguante motorhead!!!gracias!!!!
gracias rafa por este material ya lo vi y a pesar de que pesa poco se ve y se escucha muy bien
Buen post...  
Para futuros post usa spoiler o encripta los enlaces...  
fuck yea!!! que buen aporte este de la vieja escuela sigue asi amigo awante el rock y el metal
Yeah! ahora voy por el de Maiden... gracias
Que te puedo decir que no te haya dicho Terrible Aporte!!! Muchisimas Gracias y Dale Para Adelante!!!
Muy buen material muchas gracias
Para dejar un comentario Registrate! o.. eres ya usuario? Accede!