BDRip 700Mb La Era del Rock (2012) Latino [PL]

BDRip 700Mb La Era del Rock (2012) Español Latino




TÍTULO ORIGINAL: Rock of Ages
OTROS TÍTULOS: Rock of Ages (La era del rock) / La Era del Rock
AÑO: 2012
DURACIÓN: 123 min.
PAÍS: USA
DIRECTOR: Adam Shankman
REPARTO: Tom Cruise, Julianne Hough, Diego Boneta, Russell Brand, Paul Giamatti, Catherine Zeta-Jones, Malin Akerman, Mary J. Blige, Alec Baldwin
GÉNERO: Musical. Comedia. Drama | Música


Sherrie, una chica de un pueblo pequeño, y Drew, un chico citadino, se conocen durante una puesta de sol muy especial, mientras ella persigue sus sueños de ir a Hollywood y triunfar como artista. Los dos unen sus caminos y su romance rockero se desarrolla a través de los éxitos de Def Leppard, Joan Jett, Foreigner, Bon Jovi, Twisted Sister, Poison, Whitesnake y otras bandas representativas del rock.







Enlaces De Descarga
BDRip 700Mb La Era del Rock (2012) Latino [PL]
10 Puntos Score: 5/10
Visitas: 1519 Favoritos: 4
Ver los usuarios que votaron...
11 Comentarios BDRip 700Mb La Era del Rock (2012) Latino [PL]
graciaz por el aporte amigo .... pero putlocker ezta con fallaz..... te agradeceriamoz creo que muchoz zi lo zubieraz a mediafire o gamefront
primero que nada me puedes pasar la informacion del video resolucion y el audio si queda para la version? Saludos
y que tal el audio??
por que salieron unas versiones de audio latino que entre los minutos 20 a 30
no esta bien y hay pedazos de la pelicula que el audio esta perfecto!!
espero lo cheques
saludos...
descargando haber que tal  
General
Complete name                    : D:Peliculas[DBRip] Rock of Ages (2012).avi
Format                           : AVI
Format/Info                      : Audio Video Interleave
File size                        : 700 MiB
Duration                         : 2h 3mn
Overall bit rate                 : 793 Kbps
Movie name                       : Rock.of.Ages.2012.BDRip.LATiNO.XviD
Movie name/Country               : USA
Director                         : www.intercambiosvirtuales.org
Production designer              : 2012
Written by                       : www.intercambiosvirtuales.org
Genre                            : Musical
Keywords                         : www.intercambiosvirtuales.org
Recorded date                    : 01-10-2012
Copyright                        : www.intercambiosvirtuales.org
Comment                          : www.intercambiosvirtuales.org

Video
ID                               : 0
Format                           : MPEG-4 Visual
Format profile                   : Advanced [email protected]
Format settings, BVOP            : Yes
Format settings, QPel            : No
Format settings, GMC             : No warppoints
Format settings, Matrix          : Default (H.263)
Codec ID                         : XVID
Codec ID/Hint                    : XviD
Duration                         : 2h 3mn
Bit rate                         : 659 Kbps
Width                            : 640 pixels
Height                           : 256 pixels
Display aspect ratio             : 2.500
Frame rate                       : 23.976 fps
Color space                      : YUV
Chroma subsampling               : 4:2:0
Bit depth                        : 8 bits
Scan type                        : Progressive
Bits/(Pixel*Frame)               : 0.168
Stream size                      : 582 MiB (83%)
Writing library                  : XviD 1.2.1 (UTC 2008-12-04)

Audio
ID                               : 1
Format                           : MPEG Audio
Format version                   : Version 1
Format profile                   : Layer 3
Mode                             : Joint stereo
Codec ID                         : 55
Codec ID/Hint                    : MP3
Duration                         : 2h 3mn
Bit rate mode                    : Constant
Bit rate                         : 128 Kbps
Channel(s)                       : 2 channels
Sampling rate                    : 48.0 KHz
Stream size                      : 113 MiB (16%)
Alignment                        : Aligned on interleaves
Interleave, duration             : 167 ms (4.00 video frames)
Interleave, preload duration     : 216 ms
Writing library                  : LAME3.99r
Encoding settings                : -m j -V 4 -q 2 -lowpass 17 -b 128
Language                         : Spanish
gracias , la peli algunos me decian q no estaba tan buena como se esperaba ... tengo q comprobarlo
@byron104  La verdad yo la empece a ver y la temino de ver mi hija, es entretenida a ratos pero se carga mucho a la musica (sin desmerecer a los temasos y/o a los musicales) pero tiene partes entretenidisimas
gracias no me gustan mucho los musicales pero hay que verla  
link caidos  
Para dejar un comentario Registrate! o.. eres ya usuario? Accede!