The Expendables 2 2012 R5

The Expendables 2 2012 R5









Antes que nada descarguen la muestra del video para que puedan apreciar la calidad:Aqui
Título: Los mercenarios 2

 Título original: The Expendables 2

 País: USA

Estreno en USA: 17/08/2012

Estreno en España: 24/08/2012

Productora: Lionsgate, Millennium Films, Nu Image Films

 Director: Simon West

 Guión: David Agosto, Ken Kaufman

 Reparto: Sylvester Stallone, Jason Statham, Bruce Willis, Arnold Schwarzenegger, Chuck Norris, Jean Claude Van Damme, Dolph Lundgren, Liam Hemsworth, Jet Li, Charisma Carpenter, Scott Adkins, Terry Crews, Randy Couture, Yu Nan, Amanda Ooms

Calificación: No recomendada para menores de 16 años

Sinopsis:

En ?Los mercenarios 2?, Barney Ross (Sylvester Stallone) y su equipo se vuelven a unir cuando el señor Church (Bruce Willis) los recluta para encargarse de un trabajo aparentemente sencillo. Sin embargo, pese a parecer dinero fácil, las cosas se tuercen y uno de sus miembros es brutalmente asesinado, lo que impulsa al resto de sus compañeros a buscar venganza. El equipo, empeñado en desquitarse, va dejando un rastro de destrucción a su paso entre las fuerzas enemigas, sembrando el caos, para acabar encontrando una amenaza inesperada: cinco toneladas de plutonio apto para uso militar, una cantidad más que suficiente para cambiar el equilibrio de poder en el mundo. Aunque eso no es nada comparado con la justicia que van a imponer al vil adversario que asesinó despiadadamente a su camarada. Y todo ello hecho al inimitable estilo de los mercenarios?

Audio: Inglés | Subtitulos | Información del fichero :


Video
ID : 0
Format : MPEG-4 Visual
Format profile : Advanced [email protected]
Format settings, BVOP : 2
Format settings, QPel : No
Format settings, GMC : No warppoints
Format settings, Matrix : Default (MPEG)
Codec ID : XVID
Codec ID/Hint : XviD
Duration : 1h 38mn
Bit rate : 1 607 Kbps
Width : 720 pixels
Height : 304 pixels
Display aspect ratio : 2.35:1
Frame rate : 25.000 fps
Color space : YUV
Chroma subsampling : 4:2:0
Bit depth : 8 bits
Scan type : Progressive
Compression mode : Lossy
Bits/(Pixel*Frame) : 0.294
Stream size : 1.10 GiB (92%)
Writing library : XviD 1.2.1 (UTC 2008-12-04)

Audio
ID : 1
Format : MPEG Audio
Codec ID : 55
Codec ID/Hint : MP3
Duration : 1h 38mn
Bit rate : 128 Kbps
Channel(s) : 2 channels
Sampling rate : 48.0 KHz
Compression mode : Lossy
Stream size : 89.8 MiB (7%)
Alignment : Aligned on interleaves
Interleave, duration : 5885480 ms (147 137.00 video frames)











Enlaces De Descarga

Subtitulos
The Expendables 2 2012 R5
5 Puntos Score: 5/10
Visitas: 2161 Favoritos: 6
Ver los usuarios que votaron...
29 Comentarios The Expendables 2 2012 R5
Muchas gracias, mejor que la 1 sin duda.
Cita WiLuigi: Mostrar
Gracias a ti por comentar, estoy trabajando en los subtitulos (con las de las versiones anteriores) y en cuanto los tenga listos actualizo el post!
Cita TheMasters: Mostrar
cuando consigas los sub van 10
paso denuevo para decir bajandooo xD te daria pts pero no tengo u.u y vere si le asen los subtitulos que tengo ,si les ase te los pasare  
Cita scheffan: Mostrar

Cita TheMasters: Mostrar
El proceso es un poco tedioso si me ayudas con ello ser?
muy bueno, muchas gracias  
gracias maestro!!
Cita iphones: Mostrar

Cita alejo16: Mostrar
A ustedes por su comentario!

Cita LuisSamuel: Mostrar
Viejo est?
Bajando, gracias por compartir
Que diferencia hay entre la de 1.16GB y la de 700MB ? Tienen las mismas caracteristicas
Cita JoseRP: Mostrar
La de 700 MB:
ViDEO............: ~865 kbps, XViD
AUDiO............: ~128 kbps, 2 chnls, MP3
RESOLUTiON.......: 720 x 304
FRAMERATE........: 25.000 FPS
SiZE.............: 700 MB
La de 1.2 Gb:

ViDEO............: ~1607 kbps, XViD
AUDiO............: ~128 kbps, 2 chnls, MP3
RESOLUTiON.......: 720 x 304
FRAMERATE........: 25.000 FPS
SiZE.............: 1200 MB
O sea resumiendo,  un poco mejor calidad de video con el mismo tama?
Cita bfg10k: Mostrar
Gracias a ti!
avisame para cuando los subtitulos desde ya gracias
Cita lobo50: Mostrar
Posiblemente en pocas horas, yo te aviso!
Cita agamboat: Mostrar
Cita JoseRP: Mostrar
buscando y viendo mis subtitulos(tengo como 5 xD) ninguno le hacia bien ... asi que ahora estoy atrasando un subtitulo para que encaje .. cualquier cosas te aviso igual postea el tuyo y denuevo muchas gracias
@scheffan @TheMasters @IsaacSld los subtitulos ya estan en el post:

http://www.subdivx.com/X6XMzAxMTI1X-the-expendables-2-2012.html

@IsaacSld esos subs los arregle yo (usuario agamboat) pero tiene algunos tiempos malos mejor baja los del post!
Cita agamboat: Mostrar

Vale, gracias por el aviso.
Ya arregle los mios igual tienen bajas pero gracias por estos *----* !!
gracias, bajando.
Gracias por compartir bajo tu aporte por el tama?
bajando a ver que tal Grx por el aporte  
Cita scheffan: Mostrar
Gracias man, ojal?
Para dejar un comentario Registrate! o.. eres ya usuario? Accede!