Oops.. Este post tiene los enlaces eliminados!

Identi revisa las denuncias de los usuarios en busca de enlaces eliminados que no dejan descargar los archivos, este mensaje te informa que este post que estas viendo tiene los enlaces eliminados.

Usa el Buscador

Por favor, te recomendamos que uses el buscador para encontrar más alternativas.

Behind the Music Megadeth RIP Subtitulado

  • Categoría: Reciclaje
  • Publicado hace más de 4 años









Bueno mis petardos aporto este rip mio con subtitulos grandes creados por un tal Necronomicon que por ahí conseguí espero disfruten comenten y dejen todos sus puntos


General

Format                           : AVI

Format/Info                      : Audio Video Interleave

File size                        : 770 MiB

Duration                         : 1h 16mn

Overall bit rate                 : 1 405 Kbps

Writing application              : MEncoder SVN-r30881(20100311-gcc4.3.3)

Writing library                  : MPlayer


Video

ID                               : 0

Format                           : MPEG-4 Visual

Format profile                   : Advanced [email protected]

Format settings, BVOP            : 2

Format settings, QPel            : No

Format settings, GMC             : No warppoints

Format settings, Matrix          : Default (H.263)

Codec ID                         : XVID

Codec ID/Hint                    : XviD

Duration                         : 1h 16mn

Bit rate                         : 1 201 Kbps

Width                            : 720 pixels

Height                           : 480 pixels

Display aspect ratio             : 3:2

Frame rate                       : 25.000 fps

Standard                         : NTSC

Color space                      : YUV

Chroma subsampling               : 4:2:0

Bit depth                        : 8 bits

Scan type                        : Progressive

Compression mode                 : Lossy

Bits/(Pixel*Frame)               : 0.139

Stream size                      : 658 MiB (85%)

Writing library                  : XviD 1.2.1 (UTC 2008-12-04)


Audio

ID                               : 1

Format                           : MPEG Audio

Format version                   : Version 1

Format profile                   : Layer 3

Mode                             : Joint stereo

Codec ID                         : 55

Codec ID/Hint                    : MP3

Duration                         : 1h 16mn

Bit rate mode                    : Constant

Bit rate                         : 192 Kbps

Channel(s)                       : 2 channels

Sampling rate                    : 44.1 KHz

Compression mode                 : Lossy

Delay relative to video          : 80ms

Stream size                      : 105 MiB (14%)

Alignment                        : Aligned on interleaves

Interleave, duration             : 26 ms (0.65 video frame)

Interleave, preload duration     : 522 ms

Writing library                  : LAME3.98


Visiten mi Perfil Mas de 90Rips de metales autentico










seguirme si les gustaron las minas Seguro Que si



Nosotras seguimos a RAFADETH  porque tu no?




Behind the Music Megadeth RIP Subtitulado
25 Puntos Score: 6.3/10
Visitas: 750 Favoritos: 0
Ver los usuarios que votaron...
7 Comentarios Behind the Music Megadeth RIP Subtitulado
Ohh ohh ohh, interesante, descargando!  
no tiene pass, verdad?
gracias mi pana excelente...
Muy Bueno @Rafadeth como Siempre Aportando Material de Lo Mejor!!! Muchas Gracias


un regalo para tu post
@Marianoaxl @floxetina @jorgel @THECURE @Robik gracias chicos y chicas sexis de identi cada vez el metal esta donde debe estar posicionado
Para dejar un comentario Registrate! o.. eres ya usuario? Accede!