educap
"Por qué algo y no más bien nada?"

1998-La vendedora de rosas


Segundo post de mi serie de post sobre peliculas magnificas con actores no profesionales.
Cantidad de post: dos
La otra es 2006-El camino de San Diego http://www.identi.li/?topic=128441  que junto con esta no le daba dos pesos, y me termino gustando mucho. En cuanto a esta peli me parece interesantisima. Tiene esa cosa que te hace recordarlas despues de un tiempo: eso es estetica: no lo sé.
















La vendedora de rosas
 
Es una película colombiana dirigida por el cineasta antioqueño Víctor Gaviria y protagonizada por Lady Tabares. Basada en el cuento La vendedora de cerillas (The little match girl) de Hans Christian Andersen. La película se estrenó en 1998.
Sinopsis
 
La historia cuenta los acontecimientos vividos por Mónica una niña de 13 años que vende rosas en la ciudad de Medellín un día antes y durante la noche de navidad. Después de la muerte de su abuela, Mónica huye y se encuentra con un mundo lleno de drogas, alcohol, y prostitución, ganándose la vida como una vendedora de rosas junto con sus amigas. Una noche mientras trabajaba, un borracho le regala un reloj, ella le da las gracias y siempre lo usa. Un pandillero (El Zarco) nota el nuevo reloj de Mónica y se lo roba, sumandole el insulto "abrite maricona que todo bién ya perdiste". Ahora aparte de sus otros tantos problemas, se le suma el hecho de huir de Zarco.
 
Cine y realidad
 
El cineasta Víctor Gavíria se ha destacado por utilizar en sus películas un tono documental para narrar los hechos, razón por la cual sus filmes emplea únicamente actores naturales con vivencias similares a las de sus personajes. La vendedora de rosas utiliza el lenguaje de las calles y la cruda realidad de los niños de la calle, dichas representaciones han provocado críticas encontradas en Colombia.
 
Los actores y su destino
 
Algunos de los actores han muerto o se encuentran privados de la libertad. Tal vez el caso más notable por su protagonismo en la película es el de Giovanni Quiroz, quien interpretó a "El Zarco". Fue asesinado a balazos de una forma muy similar a como ocurrió en la cinta en Medellín, poco tiempo después de concluir el rodaje. Su cuerpo acribillado fue encontrado cerca de un río, en circunstancias nunca esclarecidas. Se le había prometido un curso de actuación en España y oportunidades de trabajo para abandonar la delincuencia, sueños que no se pudieron realizar por una decisión propia de Quiroz.
Otros casos son el de la propia Mónica Rodríguez, (actualmente presa) y fueron asesinados otros 5 actores en casos aislados e independientes: Elkin Vargas ("Elkin" o Murdoc", "Andrés", "Don Héctor" y otros dos solo identificados por sus apodos: "El Flaco" y "El Botas", con papeles muy breves en la película.
Finalmente, una hija adoptiva de Geovani Patiño (quien participa en algunas escenas), llamada Jennifer Arteaga, es encontrada muerta flotando en el río Medellín.
Mientras tanto la protagonista Lady Tabares fue detenida y sentenciada a 26 años de cárcel por el robo y homicidio de un taxista en complicidad con su entonces pareja, a pesar de encontrarse algunas inconsistencias en los testimonios de testigos que la involucran en el hecho. Hoy es madre de dos hijos, y se graduó como esteticista mientras cumple su condena.
Un caso excepcional fue el de Marta Correa ("Judy" quien decidió salir de las calles y es apoyada por Gaviria, director y co-guionista de la cinta, como lo hiciera en su momento con el ahora reconocido actor de cine y televisión Ramiro Meneses, quien saldría de la violenta vida de las comunas de Medellín tras interpretar el rol principal en la cinta Rodrigo D: No futuro (1990), también dirigida por Gaviria.












General

Format                           : AVI
Format/Info                      : Audio Video Interleave
File size                        : 701 MiB
Duration                         : 1h 50mn
Overall bit rate                 : 884 Kbps
Writing application              : Nandub v1.0rc2
Writing library                  : Nandub build 1853/release

Video
ID                               : 0
Format                           : MPEG-4 Visual
Format settings, BVOP            : 1
Format settings, QPel            : No
Format settings, GMC             : No warppoints
Format settings, Matrix          : Default (H.263)
Muxing mode                      : Packed bitstream
Codec ID                         : DX50
Codec ID/Hint                    : DivX 5
Duration                         : 1h 50mn
Bit rate                         : 747 Kbps
Width                            : 512 pixels
Height                           : 272 pixels
Display aspect ratio             : 1.882
Frame rate                       : 25.000 fps
Color space                      : YUV
Chroma subsampling               : 4:2:0
Bit depth                        : 8 bits
Scan type                        : Progressive
Compression mode                 : Lossy
Bits/(Pixel*Frame)               : 0.215
Stream size                      : 593 MiB (85%)
Writing library                  : DivX 5.1.1 (Maupiti) (UTC 2003-11-19)

Audio
ID                               : 1
Format                           : MPEG Audio
Format version                   : Version 1
Format profile                   : Layer 3
Mode                             : Joint stereo
Codec ID                         : 55
Codec ID/Hint                    : MP3
Duration                         : 1h 50mn
Bit rate mode                    : Variable
Bit rate                         : 128 Kbps
Channel(s)                       : 2 channels
Sampling rate                    : 48.0 KHz
Compression mode                 : Lossy
Stream size                      : 97.9 MiB (14%)
Alignment                        : Aligned on interleaves
Interleave, duration             : 24 ms (0.60 video frame)
Interleave, preload duration     : 506 ms
Writing library                  : LAME3.90.
Encoding settings                : -m j -V 4 -q 2 -lowpass 17.6 --abr 128







Idioma: Español Latino - Colombia - - Jerga Callejera - - Medellin--
Peso: 700 Mb
Resolucion: 512x 272
Formato: Avi
Calidad: VHS-RipUploader educap











Enlaces De Descarga

educap









1998-La vendedora de rosas
0 Puntos Score: 0/10
Visitas: 1907 Favoritos: 2
5 Comentarios 1998-La vendedora de rosas
Buena Movie.... Tenes Rodrigo D?
Cita badomalo: Mostrar
quien es rodrigo??
esta peli tiene esa cosa, mamita, que tambien encontre en los libros de Marquez...  
Cita educap: Mostrar
RODRIGO D NO FUTURO
gracias buena pelicula muy fuerte buen aporte
Cita Richard7777s: Mostrar
de naa, pa que te la vea si anda con e?
Para dejar un comentario Registrate! o.. eres ya usuario? Accede!