Sergio Dalma - El mundo(Clean Full HD 1080p)

Hola a todos!!! Aqui les traigo el video musical HD de Sergio Dalma - El mundo(1080p), un tema muy bueno, el tema que se escucha bastante en Argentina, tema musical usado en Dulce Amor-TELEFE actualmente.


----------------------------------------------------------------------------------------------

Capturas:
[table][tr][td][/td][/tr][/table]

-------------------------------------------------------------------------------------------------


Datos Tecnicos:

General
Complete name :Videos HDSergio Dalma - El mundo(1080p_H.264-AAC).mp4
Format : MPEG-4
Format profile : Base Media / Version 2
Codec ID : mp42
File size : 150 MiB
Duration : 3mn 33s
Overall bit rate : 5 881 Kbps
Encoded date : UTC 2011-11-22 07:16:05
Tagged date : UTC 2011-11-22 07:16:05
gsst : 0
gstd : 213390
gssd : B4A7D02A2HH1346368756944791
gshh : o-o---preferred---eze03s09---v7---lscache3.c.youtube.com

Video
ID : 1
Format : AVC
Format/Info : Advanced Video Codec
Format profile : [email protected]
Format settings, CABAC : Yes
Format settings, ReFrames : 1 frame
Codec ID : avc1
Codec ID/Info : Advanced Video Coding
Duration : 3mn 33s
Bit rate mode : Variable
Bit rate : 5 727 Kbps
Maximum bit rate : 16.1 Mbps
Width : 1 920 pixels
Height : 1 080 pixels
Display aspect ratio : 16:9
Frame rate mode : Constant
Frame rate : 25.000 fps
Color space : YUV
Chroma subsampling : 4:2:0
Bit depth : 8 bits
Scan type : Progressive
Bits/(Pixel*Frame) : 0.110
Stream size : 146 MiB (97%)
Tagged date : UTC 2011-11-22 07:16:05

Audio
ID : 2
Format : AAC
Format/Info : Advanced Audio Codec
Format profile : LC
Codec ID : 40
Duration : 3mn 33s
Bit rate mode : Variable
Bit rate : 151 Kbps
Maximum bit rate : 249 Kbps
Channel(s) : 2 channels
Channel positions : Front: L R
Sampling rate : 44.1 KHz
Compression mode : Lossy
Stream size : 3.85 MiB (3%)
Title : IsoMedia File Produced by Google, 5-11-2011
Encoded date : UTC 2011-11-22 07:16:05
Tagged date : UTC 2011-11-22 07:16:05



----------------------------------------------------------------------------------------------


----------------------------------------------------------------------------------------------
Descarga (MEDIAFIRE):
Sergio Dalma - El mundo(Clean Full HD 1080p)
0 Puntos Score: 0/10
Visitas: 1420 Favoritos: 1
5 Comentarios Sergio Dalma - El mundo(Clean Full HD 1080p)
DESTRUKTOR DICE :

DESTRUKTOR reocmienda  este post de buena musica
Por favor subelo a otro servidor ya que en Espa?
Amigo pon este igual por PUTLOCKER   muchas gracias  
y el pass????????????
Sergio Dalma???...y habra alguien que se interese por este pobre diablo...?
Para dejar un comentario Registrate! o.. eres ya usuario? Accede!