educap
"Por qué algo y no más bien nada?"
Oops.. Este post tiene los enlaces eliminados!

Identi revisa las denuncias de los usuarios en busca de enlaces eliminados que no dejan descargar los archivos, este mensaje te informa que este post que estas viendo tiene los enlaces eliminados.

Usa el Buscador

Por favor, te recomendamos que uses el buscador para encontrar más alternativas.

2006-El camino de San Diego

  • Categoría: Reciclaje
  • Publicado hace más de 4 años


Este post inaugura mi serie de post sobre peliculas magnificas con actores no profesionales.
Cantidad de post: dos
La otra es 1998-La vendedora de rosas, que junto con esta no le daba dos pesos, y me termino gustando mucho. En cuanto a esta peli me parece una obra maestra, y el que quiera saber poruqé, que me pregunte...
Mas alla de la idolatria al Diego o no, vamos a los recursos y al argumento: magistrales.
















 
SINOPSIS:

Tati, un joven de la provincia de Misiones, es un fan loco de Maradona, como la mayoría de los argentinos. A pesar de haber perdido su trabajo y de que su situación económica sea dramática, Tati no pierde su espíritu jovial. Cuando la televisión informa del internamiento de Maradona en la Clínica Suizo Argentina de Buenos Aires por un problema cardíaco, Tati decide viajar a la capital para hacerle entrega personalmente de una talla esculpida en madera. Atraviesa el monte a pie cargando la escultura envuelta en papel de diario y un bolso con otras tallas que espera vender. Una vez en la ruta, conoce a Warguinho, comenzando así su periplo, rico en sorpresas y encuentros. ¿Logrará entregar la escultura a su ídolo?



General
Complete name                    : D:EduardoTodo visualCinePeliculasargentinasel camino de san diego2006-El Camino de San Diego.avi
Format                           : AVI
Format/Info                      : Audio Video Interleave
File size                        : 701 MiB
Duration                         : 1h 38mn
Overall bit rate                 : 993 Kbps
Writing application              : VirtualDubMod 1.5.10.2 (build 2540/release)
Writing library                  : VirtualDubMod build 2540/release

Video
ID                               : 0
Format                           : MPEG-4 Visual
Format profile                   : Advanced [email protected]
Format settings, BVOP            : 2
Format settings, QPel            : No
Format settings, GMC             : No warppoints
Format settings, Matrix          : Default (H.263)
Codec ID                         : XVID
Codec ID/Hint                    : XviD
Duration                         : 1h 38mn
Bit rate                         : 848 Kbps
Width                            : 592 pixels
Height                           : 320 pixels
Display aspect ratio             : 1.850
Frame rate                       : 29.970 fps
Color space                      : YUV
Chroma subsampling               : 4:2:0
Bit depth                        : 8 bits
Scan type                        : Progressive
Compression mode                 : Lossy
Bits/(Pixel*Frame)               : 0.149
Stream size                      : 598 MiB (85%)
Writing library                  : XviD 1.1.0 (UTC 2005-11-22)

Audio
ID                               : 1
Format                           : MPEG Audio
Format version                   : Version 1
Format profile                   : Layer 3
Mode                             : Joint stereo
Mode extension                   : MS Stereo
Codec ID                         : 55
Codec ID/Hint                    : MP3
Duration                         : 1h 38mn
Bit rate mode                    : Variable
Bit rate                         : 128 Kbps
Channel(s)                       : 2 channels
Sampling rate                    : 48.0 KHz
Compression mode                 : Lossy
Stream size                      : 92.7 MiB (13%)
Alignment                        : Aligned on interleaves
Interleave, duration             : 24 ms (0.72 video frame)
Interleave, preload duration     : 140 ms
Writing library                  : LAME3.90.
Encoding settings                : -m j -V 4 -q 2 -lowpass 17.6 --abr 128




Avi xvid
Latino!
700 MB
Gamefront
Uploader educap











Enlaces De Descarga

educap









2006-El camino de San Diego
0 Puntos Score: 0/10
Visitas: 470 Favoritos: 1
1 Comentarios 2006-El camino de San Diego
Para dejar un comentario Registrate! o.. eres ya usuario? Accede!