My Way 2011 DVDRip

My Way 2011 DVDRip








Sinopsis:

My Way es nuevamente otra historia de amistad y valores, de cambios de bandos, de amores y odios.

Dos amigos de la infancia, uno japones y otro coreano, ven cortada su relacion cuando entrada la adolescencia un incidente produce la muerte del abuelo japones.
Ambos se distancian.
Se vuelven a encontrar en dos oportunidades: primero, en una maraton, donde ambos compiten.
Segundo, en plena segunda guerra mundial, cuando Japon toma rehenes coreanos para luchar en li­nea de fuego.

Los ex amigos se encontraran en circunstancias extremas y la propia guerra los moldeara.

Hermosa cinta belica, que supera holgadamente en efectos a Tae Gu Ki, que esta a la altura de Rescatando al Soldado Ryan, Las banderas de nuestros Padres o Las Cartas de Iwo Jima, que si bien el guion es apenas mas simple que el de la anterior peli­cula, esto se compensa con lo emotivo y fuerte de la historia.

Grandes actores, escenas de guerra inolvidables, una historia hermosa y una candidata de fierro para competir por el Oscar de habla no inglesa.


Titulo original: Mai wei | Año: 2011 | IMDB Rating: 7.4 (1,331 Votos) |
 
Fecha: 20 April 2012 | Duracion: 137 min | Genero: Accion, Drama, Historia, Guerra
 
Director: Je-kyu Kang | Escritor: Je-kyu Kang, Byung-in Kim
 Protagonistas: Dong-gun Jang, Jô Odagiri, Bingbing Fan
 
Idioma: KOR + JPN| Subtitulos
 
Tamaño: 1.37GB |


Stats:
Format : AVI
Format/Info : Audio Video Interleave
File size : 1.37 GiB
Duration : 2h 17mn
Overall bit rate : 1 423 Kbps
Writing application : Nandub v1.0rc2
Writing library : Nandub build 1852/release

Video
ID : 0
Format : MPEG-4 Visual
Format profile : Advanced [email protected]
Format settings, BVOP : 2
Format settings, QPel : No
Format settings, GMC : No warppoints
Format settings, Matrix : Default (H.263)
Codec ID : XVID
Codec ID/Hint : XviD
Duration : 2h 17mn
Bit rate : 1 287 Kbps
Width : 640 pixels
Height : 272 pixels
Display aspect ratio : 2.35:1
Frame rate : 25.000 fps
Color space : YUV
Chroma subsampling : 4:2:0
Bit depth : 8 bits
Scan type : Progressive
Compression mode : Lossy
Bits/(Pixel*Frame) : 0.296
Stream size : 1.24 GiB (90%)
Writing library : XviD 64

Audio
ID : 1
Format : MPEG Audio
Format version : Version 1
Format profile : Layer 3
Mode : Joint stereo
Mode extension : MS Stereo
Codec ID : 55
Codec ID/Hint : MP3
Duration : 2h 17mn
Bit rate mode : Variable
Bit rate : 128 Kbps
Channel(s) : 2 channels
Sampling rate : 48.0 KHz
Compression mode : Lossy
Stream size : 121 MiB (9%)
Alignment : Aligned on interleaves
Interleave, duration : 24 ms (0.60 video frame)
Interleave, preload duration : 143 ms
Writing library : LAME3.98r
Encoding settings : -m j -V 4 -q 3 -lowpass 17 --abr 128





My Way 2011 DVDRip
0 Puntos Score: 0/10
Visitas: 1561 Favoritos: 4
5 Comentarios My Way 2011 DVDRip
Pelicula recomendadicimaaaaaaaaaaaaa peliculon bajen no van a defraudarce
exelebnte aprte no la bajo al tengo en DVD full  pero igual muchismas garcias
Cita ka1ron: Mostrar
Se agradece tu comentario!
ESCUCHAME YO BAJE VARIAS PELIS DE ESTA PERO TODAS VIOENEN CON UNA FALLA EN EL AUDIO CASI AL FINAL DE LA PELI ... VOS LA CHEKEASTE A LA PELI??'' NO TIENE RETRASO DE SONIDO???=
@ROBERCAPO hermano, es un dvdrip nuevo, 2012.  No tiene fallo de audio pero la cagada es que los subtitulos son un asunto algo dificil.
links muerto      
Para dejar un comentario Registrate! o.. eres ya usuario? Accede!