Iron Maiden Live in Mexico Mvs bootleg








1. INTRODUCTIONS/INTERVIEWS
2. BE QUICK OR BE DEAD
3. THE NUMBER OF THE BEAST
4. WRATHCHILD
5. FROM HERE TO ETERNITY
6. CAN I PLAY WITH MADNESS
7. WASTED LOVE
8. TAIL GUNNER
9. THE EVIL THAT MAN DO
10. AFRAID TO SHOOT STRANGER
11. FEAR OF THE DARK
12. BRING YOUR DAUGHTER TO THE SLAUGHTER
13. THE CLAIRVOYANT
14. HEAVEN CAN'T WAIT
15. RUN TO THE HILLS
16. 2 MINUTED TO MIDNIGHT
17. IRON MAIDEN
18. HALLOWED BE THY NAME
19. THE TROOPER
20. SANCTUARY
21. RUNNING FREE

HOLA Y ADIOS NO TENGO GANAS DE COMENTAR AHI DESCARGEN COMENTEN Y SOBRE TODO DEJEN PUNTOS PETARDOS.

General

Format                                   : AVI
Format/Info                              : Audio Video Interleave
File size                                : 767 MiB
Duration                                 : 1h 46mn
Overall bit rate                         : 1 003 Kbps
Video
ID                                       : 0
Format                                   : MPEG-4 Visual
Format settings, BVOP                    : No
Format settings, QPel                    : No
Format settings, GMC                     : No warppoints
Format settings, Matrix                  : Default (H.263)
Codec ID                                 : DX50
Codec ID/Hint                            : DivX 5
Duration                                 : 1h 46mn
Bit rate                                 : 799 Kbps
Width                                    : 720 pixels
Height                                   : 480 pixels
Display aspect ratio                     : 3:2
Frame rate                               : 29.970 fps
Standard                                 : NTSC
Color space                              : YUV
Chroma subsampling                       : 4:2:0
Bit depth                                : 8 bits
Scan type                                : Interlaced
Scan order                               : Bottom Field First
Compression mode                         : Lossy
Bits/(Pixel*Frame)                       : 0.077
Stream size                              : 611 MiB (80%)
Title                                    : Video
Writing library                          : DivX 3013
Audio
ID                                       : 1
Format                                   : MPEG Audio
Format version                           : Version 1
Format profile                           : Layer 3
Codec ID                                 : 55
Codec ID/Hint                            : MP3
Duration                                 : 1h 46mn
Bit rate mode                            : Constant
Bit rate                                 : 192 Kbps
Channel(s)                               : 2 channels
Sampling rate                            : 48.0 KHz
Compression mode                         : Lossy
Stream size                              : 147 MiB (19%)
Alignment                                : Split accross interleaves
Interleave, duration                     : 33 ms (1.00 video frame)
Interleave, preload duration             : 500 ms
Title                                    : Audio
Visiten mi Perfil Mas de 90Rips de metales autentico


Iron Maiden Live in Mexico Mvs bootleg
25 Puntos Score: 5/10
Visitas: 1905 Favoritos: 1
Ver los usuarios que votaron...
15 Comentarios Iron Maiden Live in Mexico Mvs bootleg
GRACIAS HERMANO POR ESTE MATERIAL ME RECARGAN Y VUELVO CON PUNTOS
Muy Bueno @Rafadeth Te Pasaste con Terrible Aporte!!! Muchas Gracias y sigue Compartiendo Terrible Material
Muy bueno @Rafadeth ! genial aporte viejo!!   despues me paso y te tiro unos puntos!
@Chuwa Muy bueno @Rafadeth ! genial aporte viejo!!    despues me paso y te tiro unos puntos!  gracias
Como fanatico de los Maiden no puedo mas que agradecer.  Muy bueno y sigue asi  
rafa te mande un mp por que no respondes
aqui [email protected]  no estoy en identi todo el dia como ya sabes si con gusto acepto hace rato te devolvi el mensaje pero no llega   respondo aqui
Cita Rafadeth: Mostrar

AHORITA TE MANDO EL BANNER
JAJAJA YA TE LO ENVIE NO SOY COMO
QUE RAFA SI TE GUSTO?
Gran aporte. Sue?
gracias hermano  
ya esatn rotos los links men oaja pueda resubirlo para disfrutar a los maiden en mexico..please
Para dejar un comentario Registrate! o.. eres ya usuario? Accede!