Oops.. Este post tiene los enlaces eliminados!

Identi revisa las denuncias de los usuarios en busca de enlaces eliminados que no dejan descargar los archivos, este mensaje te informa que este post que estas viendo tiene los enlaces eliminados.

Usa el Buscador

Por favor, te recomendamos que uses el buscador para encontrar más alternativas.

Iron Maiden Live in Dortmund 83 Rip

  • Categoría: Reciclaje
  • Publicado hace más de 4 años











HOLA Y ADIOS NO TENGO GANAS DE COMENTAR AHI DESCARGEN COMENTEN Y SOBRE TODO DEJEN PUNTOS PETARDOS.
General

Format                           : MPEG-4

Format profile                   : Base Media / Version 2

Codec ID                         : mp42

File size                        : 173 MiB

Duration                         : 40mn 25s

Overall bit rate                 : 598 Kbps

Encoded date                     : UTC 2011-10-19 12:52:54

Tagged date                      : UTC 2011-10-19 12:52:54

gsst                             : 0

gstd                             : 2425120

gssd                             : BBDC1BD07HH1348468845044516

gshh                          

Video

ID                               : 1

Format                           : AVC

Format/Info                      : Advanced Video Codec

Format profile                   : [email protected]

Format settings, CABAC           : No

Format settings, ReFrames        : 1 frame

Format settings, GOP             : M=1, N=60

Codec ID                         : avc1

Codec ID/Info                    : Advanced Video Coding

Duration                         : 40mn 25s

Bit rate mode                    : Variable

Bit rate                         : 498 Kbps

Maximum bit rate                 : 1 323 Kbps

Width                            : 492 pixels

Height                           : 360 pixels

Display aspect ratio             : 4:3

Frame rate mode                  : Constant

Frame rate                       : 25.000 fps

Color space                      : YUV

Chroma subsampling               : 4:2:0

Bit depth                        : 8 bits

Scan type                        : Progressive

Bits/(Pixel*Frame)               : 0.112

Stream size                      : 144 MiB (83%)

Tagged date                      : UTC 2011-10-19 12:53:28


Audio

ID                               : 2

Format                           : AAC

Format/Info                      : Advanced Audio Codec

Format profile                   : LC

Codec ID                         : 40

Duration                         : 40mn 25s

Bit rate mode                    : Variable

Bit rate                         : 96.0 Kbps

Maximum bit rate                 : 122 Kbps

Channel(s)                       : 2 channels

Channel positions                : Front: L R

Sampling rate                    : 44.1 KHz

Compression mode                 : Lossy

Stream size                      : 27.8 MiB (16%)







http://www.identi.li/index.php?action=profile, user = Rafadeth

Visiten mi Perfil Mas de 90Rips de metales autentico


http://www.mediafire.com/?11o93cb47qswwww,snhzbikd5rt9vi7





seguirme si les gustaron las minas Seguro Que si



Nosotras seguimos a RAFADETH  porque tu no?




Iron Maiden Live in Dortmund 83 Rip
40 Puntos Score: 8/10
Visitas: 705 Favoritos: 0
Ver los usuarios que votaron...
7 Comentarios Iron Maiden Live in Dortmund 83 Rip
genial amigo!
@Chuwa gracias empiezoa creer que me bloquean mis aportes casi nadie los visita
gracias rafa, me encanta este concierto me lo llevo de immediato
Aguanten los Maiden, me acabo de comprar el Bluray de Flight 666 Y esta impresionante (como todos sus conciertos), este me lo llevo para la collecion. En estos dias ripeo el Bluray y lo comparto con la comunidad metalera.
                                                   Saludos  
@Karson gracias por pasar ahi subire mas de Miden esos son los que jalan mas los demas son ignorados
Muy Bueno @Rafadeth Muchisimas Gracias!!! Sigue con Tus rips Que Est?
Genial tus posts amigo  
Para dejar un comentario Registrate! o.. eres ya usuario? Accede!