Oops.. Este post tiene los enlaces eliminados!

Identi revisa las denuncias de los usuarios en busca de enlaces eliminados que no dejan descargar los archivos, este mensaje te informa que este post que estas viendo tiene los enlaces eliminados.

Usa el Buscador

Por favor, te recomendamos que uses el buscador para encontrar más alternativas.

Hardline Live At The Gods Festival 2002 Rip

  • Categoría: Reciclaje
  • Publicado hace más de 4 años

 






HOLA Y ADIOS NO TENGO GANAS DE COMENTAR AHI DESCARGEN COMENTEN Y SOBRE TODO DEJEN PUNTOS PETARDOS

General

Format                                   : AVI

Format/Info                              : Audio Video Interleave

File size                                : 579 MiB

Duration                                 : 1h 7mn

Overall bit rate                         : 1 197 Kbps


Video

ID                                       : 0

Format                                   : MPEG-4 Visual

Format settings, BVOP                    : 2

Format settings, QPel                    : No

Format settings, GMC                     : No warppoints

Format settings, Matrix                  : Default (H.263)

Muxing mode                              : Packed bitstream

Codec ID                                 : DX50

Codec ID/Hint                            : DivX 5

Duration                                 : 1h 7mn

Bit rate                                 : 994 Kbps

Width                                    : 608 pixels

Height                                   : 352 pixels

Display aspect ratio                     : 1.727

Frame rate                               : 29.970 fps

Color space                              : YUV

Chroma subsampling                       : 4:2:0

Bit depth                                : 8 bits

Scan type                                : Progressive

Compression mode                         : Lossy

Bits/(Pixel*Frame)                       : 0.155

Stream size                              : 480 MiB (83%)

Title                                    : Video

Writing library                          : DivX 3013


Audio

ID                                       : 1

Format                                   : MPEG Audio

Format version                           : Version 1

Format profile                           : Layer 3

Codec ID                                 : 55

Codec ID/Hint                            : MP3

Duration                                 : 1h 7mn

Bit rate mode                            : Constant

Bit rate                                 : 192 Kbps

Channel(s)                               : 2 channels

Sampling rate                            : 44.1 KHz

Compression mode                         : Lossy

Stream size                              : 92.8 MiB (16%)

Alignment                                : Split accross interleaves

Interleave, duration                     : 33 ms (1.00 video frame)

Interleave, preload duration             : 500 ms

Title                                    : Audio




Visiten mi Perfil Mas de 90Rips de metales autentico








seguirme si les gustaron las minas Seguro Que si




Nosotras seguimos a RAFADETH  porque tu no?


Hardline Live At The Gods Festival 2002 Rip
10 Puntos Score: 5/10
Visitas: 599 Favoritos: 1
Ver los usuarios que votaron...