Oops.. Este post tiene los enlaces eliminados!

Identi revisa las denuncias de los usuarios en busca de enlaces eliminados que no dejan descargar los archivos, este mensaje te informa que este post que estas viendo tiene los enlaces eliminados.

Usa el Buscador

Por favor, te recomendamos que uses el buscador para encontrar más alternativas.

G 3 Satriani Vai Johnson

  • Categoría: Reciclaje
  • Publicado hace más de 4 años










HOLA Y ADIOS NO TENGO GANAS DE COMENTAR AHI DESCARGEN COMENTEN Y SOBRE TODO DEJEN PUNTOS PETARDOS


General
Format                                   : AVI

Format/Info                              : Audio Video Interleave

File size                                : 443 MiB

Duration                                 : 1h 8mn

Overall bit rate                         : 904 Kbps


Video

ID                                       : 0

Format                                   : MPEG-4 Visual

Format settings, BVOP                    : 2

Format settings, QPel                    : No

Format settings, GMC                     : No warppoints

Format settings, Matrix                  : Default (H.263)

Muxing mode                              : Packed bitstream

Codec ID                                 : DX50

Codec ID/Hint                            : DivX 5

Duration                                 : 1h 8mn

Bit rate                                 : 700 Kbps

Width                                    : 480 pixels

Height                                   : 336 pixels

Display aspect ratio                     : 1.429

Frame rate                               : 29.970 fps

Color space                              : YUV

Chroma subsampling                       : 4:2:0

Bit depth                                : 8 bits

Scan type                                : Progressive

Compression mode                         : Lossy

Bits/(Pixel*Frame)                       : 0.145

Stream size                              : 343 MiB (77%)

Title                                    : Video

Writing library                          : DivX 3013


Audio

ID                                       : 1

Format                                   : MPEG Audio

Format version                           : Version 1

Format profile                           : Layer 3

Codec ID                                 : 55

Codec ID/Hint                            : MP3

Duration                                 : 1h 8mn

Bit rate mode                            : Constant

Bit rate                                 : 192 Kbps

Channel(s)                               : 2 channels

Sampling rate                            : 44.1 KHz

Compression mode                         : Lossy

Stream size                              : 94.1 MiB (21%)

Alignment                                : Split accross interleaves

Interleave, duration                     : 33 ms (1.00 video frame)

Interleave, preload duration             : 500 ms

Title                                    : Audio




Visiten mi Perfil Mas de 90Rips de metales autentico








seguirme si les gustaron las minas Seguro Que si




Nosotras seguimos a RAFADETH  porque tu no?





G 3 Satriani Vai Johnson
23 Puntos Score: 5.8/10
Visitas: 794 Favoritos: 3
Ver los usuarios que votaron...
10 Comentarios G 3 Satriani Vai Johnson
Muy buen post con tres monstruos de las 6 cuerdas, muchas gracias
Excelente, gracias por compartir.
exelente el trio perfecto.......
@floxetina oh  te gustan los trios
gracias por pasar floxe
@Rafadeth hoy que comistes sopa de payaso,por que estas chistoso
@floxetina te quiero comer a ti ajajjaja  
@Rafadeth   Muchisimas Gracias Por Compartirlo, Muy Bueno!!!
gracias brother, precisamente platicabamos de estos genios y lo posteas, gracas Rafin ya sabes que este material me gusta mucho sino pase por el de canibal, es por que sabes que no me gusta, pero todo lo demas eres un genio todos me los he llevado, espero algo de motorhead aparte del que publicaste antes
Genio!!!, gracias, exelente material  
descargando de una, lo tengo full, pero de tanto escucharlo esta todo rayado y el dvd no lo lee, muchas gracias por el aporte Saludos
Para dejar un comentario Registrate! o.. eres ya usuario? Accede!