Oops.. Este post tiene los enlaces eliminados!

Identi revisa las denuncias de los usuarios en busca de enlaces eliminados que no dejan descargar los archivos, este mensaje te informa que este post que estas viendo tiene los enlaces eliminados.

Usa el Buscador

Por favor, te recomendamos que uses el buscador para encontrar más alternativas.

Joe Satriani at the Montreux Jazz Festival in 1988

  • Categoría: Reciclaje
  • Publicado hace más de 4 años







01 - Ice 9
02 - Memories
03 - Midnight
04 - Rubina
05 - Circles
06 - Lords of Karma
07 - Stu Hamm bass solo
08 - Echo
09 - Hordes of Locusts
10 - Always With Me, Always With You
11 - Satch Boogie


HOLA Y ADIOS NO TENGO GANAS DE COMENTAR AHI DESCARGEN COMENTEN Y SOBRE TODO DEJEN PUNTOS PETARDOS

El MAESTRO SATRIANI QUE MAS SE PUEDE DECIR

General


Format                                   : AVI

Format/Info                              : Audio Video Interleave

File size                                : 379 MiB

Duration                                 : 1h 0mn

Overall bit rate                         : 878 Kbps


Video

ID                                       : 0

Format                                   : MPEG-4 Visual

Format settings, BVOP                    : 2

Format settings, QPel                    : No

Format settings, GMC                     : No warppoints

Format settings, Matrix                  : Default (H.263)

Muxing mode                              : Packed bitstream

Codec ID                                 : DX50

Codec ID/Hint                            : DivX 5

Duration                                 : 1h 0mn

Bit rate                                 : 675 Kbps

Width                                    : 480 pixels

Height                                   : 360 pixels

Display aspect ratio                     : 4:3

Frame rate                               : 30.000 fps

Color space                              : YUV

Chroma subsampling                       : 4:2:0

Bit depth                                : 8 bits

Scan type                                : Progressive

Compression mode                         : Lossy

Bits/(Pixel*Frame)                       : 0.130

Stream size                              : 292 MiB (77%)

Title                                    : Video

Writing library                          : DivX 3013


Audio

ID                                       : 1

Format                                   : MPEG Audio

Format version                           : Version 1

Format profile                           : Layer 3

Codec ID                                 : 55

Codec ID/Hint                            : MP3

Duration                                 : 1h 0mn

Bit rate mode                            : Constant

Bit rate                                 : 192 Kbps

Channel(s)                               : 2 channels

Sampling rate                            : 44.1 KHz

Compression mode                         : Lossy

Stream size                              : 82.9 MiB (22%)

Alignment                                : Split accross interleaves

Interleave, duration                     : 33 ms (1.00 video frame)

Interleave, preload duration             : 500 ms

Title                                    : Audio





Visiten mi Perfil Mas de 70 Rips de metales autentico











seguirme si les gustaron las minas Seguro Que si




Nosotras seguimos a RAFADETH  porque tu no?


Joe Satriani at the Montreux Jazz Festival in 1988
5 Puntos Score: 5/10
Visitas: 715 Favoritos: 2
Ver los usuarios que votaron...
4 Comentarios Joe Satriani at the Montreux Jazz Festival in 1988
rafa por tu culpa ya tengo el rigido de 500 gb que explota, ahora no puedo bajar mas nada pero seguiere agradeciendo tus gloriosos aportes   saludos
@fredydarko solucion quema en dvds no hay de otra  
gracias gay, este si me gusto cuando me recarguen puntos
Para dejar un comentario Registrate! o.. eres ya usuario? Accede!