Oops.. Este post tiene los enlaces eliminados!

Identi revisa las denuncias de los usuarios en busca de enlaces eliminados que no dejan descargar los archivos, este mensaje te informa que este post que estas viendo tiene los enlaces eliminados.

Usa el Buscador

Por favor, te recomendamos que uses el buscador para encontrar más alternativas.

Cannibal Corpse Live Canibalism Rip

  • Categoría: Reciclaje
  • Publicado hace más de 4 años







HOLA Y ADIOS NO TENGO GANAS DE COMENTAR AHI DESCARGEN COMENTEN Y SOBRE TODO DEJEN PUNTOS PETARDOS


General
                   
Format                                   : AVI

Format/Info                              : Audio Video Interleave

File size                                : 475 MiB

Duration                                 : 1h 6mn

Overall bit rate                         : 1 003 Kbps


Video

ID                                       : 0

Format                                   : MPEG-4 Visual

Format settings, BVOP                    : 2

Format settings, QPel                    : No

Format settings, GMC                     : No warppoints

Format settings, Matrix                  : Default (H.263)

Muxing mode                              : Packed bitstream

Codec ID                                 : DX50

Codec ID/Hint                            : DivX 5

Duration                                 : 1h 6mn

Bit rate                                 : 800 Kbps

Width                                    : 472 pixels

Height                                   : 360 pixels

Display aspect ratio                     : 4:3

Frame rate                               : 29.970 fps

Color space                              : YUV

Chroma subsampling                       : 4:2:0

Bit depth                                : 8 bits

Scan type                                : Progressive

Compression mode                         : Lossy

Bits/(Pixel*Frame)                       : 0.157

Stream size                              : 379 MiB (80%)

Title                                    : Video

Writing library                          : DivX 3013


Audio

ID                                       : 1

Format                                   : MPEG Audio

Format version                           : Version 1

Format profile                           : Layer 3

Codec ID                                 : 55

Codec ID/Hint                            : MP3

Duration                                 : 1h 6mn

Bit rate mode                            : Constant

Bit rate                                 : 192 Kbps

Channel(s)                               : 2 channels

Sampling rate                            : 44.1 KHz

Compression mode                         : Lossy

Stream size                              : 90.9 MiB (19%)

Alignment                                : Split accross interleaves




Visiten mi Perfil Mas de 70 Rips de metales autentico






seguirme si les gustaron las minas Seguro Que si



Nosotras seguimos a RAFADETH  porque tu no?









Cannibal Corpse Live Canibalism Rip
10 Puntos Score: 5/10
Visitas: 2745 Favoritos: 2
Ver los usuarios que votaron...
7 Comentarios Cannibal Corpse Live Canibalism Rip
brutal bro perfecto para poguear
buena captura..por fin NOOB..una mierda de post..pero la captura merece 5
compadre
no veo los links
me puedes ayudar??
Para dejar un comentario Registrate! o.. eres ya usuario? Accede!