Batman Begins (2005) 1080p 5.1 Ch Subido x mi (GF)

Antes que nada quiero agradecer a quienes comentan y dejan puntos agradeciento mi labor de postear y compartir y ahora si arrancamos con el post


Buenas muchachos de esta gran comunidad aca le vengo a traer


Sipnosis

Batman Begins de Christopher Nolan explora los orígenes de la leyenda de Batman y la aparición del Caballero Oscuro como fuerza del bien en Gotham. Tras el asesinato de sus padres, el desilusionado industrial y heredero Bruce Wayne (Christian Bale) viaja por el mundo buscando la manera de combatir la injusticia y utilizar el miedo contra los que se aprovechan de los que tienen miedo. Regresa a Gotham y da a conocer a su alter-ego: Batman, un justiciero enmascarado que utiliza su fuerza, su inteligencia y un despliegue de artefactos de alta tecnología para combatir las fuerzas siniestras que amenazan la ciudad.

Ficha Tecnica

Título: Batman Begins
Título original: Batman Begins
País: USA
Estreno en USA: 15/06/2005
Estreno en España: 17/06/2005
Edición Coleccionista: 22/07/2008
Estreno en Blu-ray: 05/08/2008
Productora: Warner Bros.
Director: Christopher Nolan
Guión: David S. Goyer & Christopher Nolan
Reparto: Christian Bale, Michael Caine, Liam Neeson, Morgan Freeman, Gary Oldman, Ken Watanabe, Katie Holmes, Cillian Murphy, Tom Wilkinson, Rutger Hauer

Informacion

GeneralUnique ID                                : 186880202921120747218341729951000303676 (0x8C97D160B536C581BD83604A3A84183C)Complete name                            : I:Batman Begins (2005)Batman.Begins.2005.720p.BluRay.DD5.1.x264-CtrlHD.mkvFormat                                   : MatroskaFormat version                           : Version 2File size                                : 4.73 GiBDuration                                 : 2h 20mnOverall bit rate                         : 4 840 KbpsEncoded date                             : UTC 2012-05-24 13:09:52Writing application                      : mkvmerge v5.1.0 ('And so it goes') built on Nov 28 2011 23:58:28Writing library                          : libebml v1.2.3 + libmatroska v1.3.0VideoID                                       : 1Format                                   : AVCFormat/Info                              : Advanced Video CodecFormat profile                           : [email protected] settings, CABAC                   : YesFormat settings, ReFrames                : 12 framesCodec ID                                 : V_MPEG4/ISO/AVCDuration                                 : 2h 20mnBit rate                                 : 4 200 KbpsWidth                                    : 1 280 pixelsHeight                                   : 534 pixelsDisplay aspect ratio                     : 2.40:1Frame rate mode                          : ConstantFrame rate                               : 23.976 fpsColor space                              : YUVChroma subsampling                       : 4:2:0Bit depth                                : 8 bitsScan type                                : ProgressiveBits/(Pixel*Frame)                       : 0.256Stream size                              : 4.01 GiB (85%)Writing library                          : x264 core 124 r2197 69a0443Encoding settings                        : cabac=1 / ref=12 / deblock=1:-3:-3 / analyse=0x3:0x133 / me=umh / subme=10 / psy=1 / psy_rd=1.00:0.00 / mixed_ref=1 / me_range=48 / chroma_me=1 / trellis=2 / 8x8dct=1 / cqm=0 / deadzone=21,11 / fast_pskip=0 / chroma_qp_offset=-2 / threads=15 / sliced_threads=0 / nr=0 / decimate=1 / interlaced=0 / bluray_compat=0 / constrained_intra=0 / bframes=10 / b_pyramid=2 / b_adapt=2 / b_bias=0 / direct=3 / weightb=1 / open_gop=0 / weightp=2 / keyint=250 / keyint_min=23 / scenecut=40 / intra_refresh=0 / rc_lookahead=60 / rc=2pass / mbtree=1 / bitrate=4200 / ratetol=1.0 / qcomp=0.70 / qpmin=0 / qpmax=69 / qpstep=4 / cplxblur=20.0 / qblur=0.5 / vbv_maxrate=42000 / vbv_bufsize=30000 / nal_hrd=none / ip_ratio=1.40 / aq=1:1.00Language                                 : EnglishDefault                                  : YesForced                                   : NoAudioID                                       : 2Format                                   : AC-3Format/Info                              : Audio Coding 3Mode extension                           : CM (complete main)Format settings, Endianness              : BigCodec ID                                 : A_AC3Duration                                 : 2h 20mnBit rate mode                            : ConstantBit rate                                 : 640 KbpsChannel(s)                               : 6 channelsChannel positions                        : Front: L C R, Side: L R, LFESampling rate                            : 48.0 KHzBit depth                                : 16 bitsCompression mode                         : LossyStream size                              : 641 MiB (13%)Language                                 : EnglishDefault                                  : YesForced                                   : NoText #1ID                                       : 3Format                                   : UTF-8Codec ID                                 : S_TEXT/UTF8Codec ID/Info                            : UTF-8 Plain TextLanguage                                 : EnglishDefault                                  : YesForced                                   : NoText #2ID                                       : 4Format                                   : UTF-8Codec ID                                 : S_TEXT/UTF8Codec ID/Info                            : UTF-8 Plain TextTitle                                    : SDHLanguage                                 : EnglishDefault                                  : NoForced                                   : NoText #3ID                                       : 5Format                                   : UTF-8Codec ID                                 : S_TEXT/UTF8Codec ID/Info                            : UTF-8 Plain TextLanguage                                 : ChineseDefault                                  : NoForced                                   : No

los links los dejo dentro de un dlc para no poner uno por uno son 25 archivos el primer .exe indica que es autoextraible cuya contraseña es "cornudo" sin comillas bueno espero que les guste mi aporte y si quieren acompañar el agradecimiento con un comentario y puntos es mas que agradecido quien lo recive y es un aliento a continuar poesteando
Visita mis posts
Batman Begins (2005) 1080p 5.1 Ch Subido x mi (GF)
0 Puntos Score: 0/10
Visitas: 1868 Favoritos: 4
1 Comentarios Batman Begins (2005) 1080p 5.1 Ch Subido x mi (GF)
Idioma?? formato?? tama?
Este post esta cerrado y no se permiten comentarios.
Para dejar un comentario Registrate! o.. eres ya usuario? Accede!