La Estafa Maestra DVDrip Latino MF (Mi Subida)

La Estafa Maestra 2003
DVDrip Latino MF




Hola amigos Hoy decidi publicar esta pelicula.. muy buena en lo personal espero la disfruten !!!


The Italian Job (The Italian Job en España y La estafa maestra en Hispanoamérica) es una película dirigida por F. Gary Gray, estrenada en 2003 y protagonizada por Mark Wahlberg, Charlize Theron, Edward Norton, Seth Green, Jason Statham, Mos Def y Donald Sutherland. Es un remake de la película de 1969 The Italian Job protagonizada por Michael Caine.

John Bridger (Donald Sutherland) habla con su hija Stella (Charlize Theron) por teléfono para anunciarle que ese sería su último robo. Más tarde John queda con el planificador, Charlie (Mark Wahlberg), para hablar sobre el robo. Ambos son buenos amigos y tiene un gran respeto el uno hacia el otro.

El grupo encabezado por Charlie estaba formado por el infiltrado Steve (Edward Norton), el genio de la informática Lyle (Seth Green), Rob (Jason Statham) como conductor, Oído izquierdo (Mos Def) el experto en explosivos y John, que era el encargado de reventar la caja fuerte. El planteamiento era perfecto, por lo que el robo en Venecia fue como se esperaba, la euforia invade a todos los presentes durante un corto periodo de tiempo. Entonces se dan cuenta que uno de los miembros del grupo, Steve, ha traicionado al resto para quedarse el solo con el oro, acto que termina con la muerte de John. Tiempo despues el grupo localiza en Los Angeles a Steve y con Charlie al mando deciden jugarle el mismo juego, por lo que recurren a Stella, la hija de John, para dar un golpe que les haga reembolsar el dinero perdido y de paso vengarse por la muerte de John.


Info. del formato de la pelicula

Format                                   : AVI
Format/Info                              : Audio Video Interleave
File size                                : 700 MiB
Duration                                 : 1h 50mn
Overall bit rate mode                    : Variable
Overall bit rate                         : 886 Kbps


Video
ID                                       : 0
Format                                   : MPEG-4 Visual
Format profile                           : Advanced [email protected]
Format settings, BVOP                    : 1
Format settings, QPel                    : No
Format settings, GMC                     : No warppoints
Format settings, Matrix                  : Custom
Codec ID                                 : XVID
Codec ID/Hint                            : XviD
Duration                                 : 1h 50mn
Bit rate                                 : 758 Kbps
Width                                    : 640 pixels
Height                                   : 272 pixels
Display aspect ratio                     : 2.35:1
Frame rate                               : 23.976 fps
Color space                              : YUV
Chroma subsampling                       : 4:2:0
Bit depth                                : 8 bits
Scan type                                : Progressive
Compression mode                         : Lossy
Bits/(Pixel*Frame)                       : 0.182
Stream size                              : 599 MiB (86%)
Writing library                          : XviD 1.1.2 (UTC 2006-11-01)

Audio
ID                                       : 1
Format                                   : MPEG Audio
Format version                           : Version 1
Format profile                           : Layer 3
Mode                                     : Joint stereo
Mode extension                           : MS Stereo
Codec ID                                 : 55
Codec ID/Hint                            : MP3
Duration                                 : 1h 50mn
Bit rate mode                            : Variable
Bit rate                                 : 115 Kbps
Nominal bit rate                         : 128 Kbps
Channel(s)                               : 2 channels
Sampling rate                            : 48.0 KHz
Compression mode                         : Lossy
Stream size                              : 91.2 MiB (13%)
Alignment                                : Aligned on interleaves
Interleave, duration                     : 24 ms (0.58 video frame)
Interleave, preload duration             : 159 ms
Writing library                          : LAME3.97
Encoding settings                        : -m j -V 4 -q 2 -lowpass 17 --abr 128







Enlaces De Descarga

Son 7 links de 95 MB y 1 de 28 MB





sergio_ml

Amigos sigamos utilizando Mediafire..!! el mejor server te permite pausar descargas y puedes descargar simultaneamente y cuantas veces quieras..!! Es cierto que borran archivos solo pongales nombres raros y no los borran yo en lo personal nunca me an borrado un archivo..!!

Gracias por pasar por el post..!!
dejen comentarios..!!
La Estafa Maestra DVDrip Latino MF (Mi Subida)
13 Puntos Score: 4.3/10
Visitas: 6712 Favoritos: 4
Ver los usuarios que votaron...
14 Comentarios La Estafa Maestra DVDrip Latino MF (Mi Subida)
exelente pelii..aguante mf...
Excelente aporte mil gracias
Excelente aporte y mejor pel?
Muy buen aporte   pero para-mi mediafire ya no vale ya no descargo nada de mediafire   saludos  
Muy bueno amigo +5
Se ve y se olle muy bien, gracias amigo.
me la llevo...gracias aunque la calidad no es exelente.....
muy buen eporte gracias. si la tuvieras en 1080p seria excslente  
no me agrega los link al programa
no me los pega en jdownoloader me podrias pasar los links ?? de otra forma que los subas en un block de notas por que no me deja porfa!!!
esta fuera de linea  
Para dejar un comentario Registrate! o.. eres ya usuario? Accede!