Van Halen Live At Tokyo Dome Japan 1989







HOLA Y ADIOS NO TENGO GANAS DE COMENTAR AHI DESCARGEN COMENTEN Y SOBRE TODO DEJEN PUNTOS PETARDOS

General

Format                                   : AVI
Format/Info                              : Audio Video Interleave
File size                                : 519 MiB
Duration                                 : 1h 12mn
Overall bit rate                         : 1 004 Kbps
Video
ID                                       : 0
Format                                   : MPEG-4 Visual
Format settings, BVOP                    : 2
Format settings, QPel                    : No
Format settings, GMC                     : No warppoints
Format settings, Matrix                  : Default (H.263)
Muxing mode                              : Packed bitstream
Codec ID                                 : DX50
Codec ID/Hint                            : DivX 5
Duration                                 : 1h 12mn
Bit rate                                 : 800 Kbps
Width                                    : 400 pixels
Height                                   : 320 pixels
Display aspect ratio                     : 5:4
Frame rate                               : 29.970 fps
Color space                              : YUV
Chroma subsampling                       : 4:2:0
Bit depth                                : 8 bits
Scan type                                : Progressive
Compression mode                         : Lossy
Bits/(Pixel*Frame)                       : 0.209
Stream size                              : 414 MiB (80%)
Title                                    : Video
Writing library                          : DivX 3013
Audio
ID                                       : 1
Format                                   : MPEG Audio
Format version                           : Version 1
Format profile                           : Layer 3
Codec ID                                 : 55
Codec ID/Hint                            : MP3
Duration                                 : 1h 12mn
Bit rate mode                            : Constant
Bit rate                                 : 192 Kbps
Channel(s)                               : 2 channels
Sampling rate                            : 44.1 KHz
Compression mode                         : Lossy
Stream size                              : 99.3 MiB (19%)
Alignment                                : Split accross interleaves
Interleave, duration                     : 33 ms (1.00 video frame)
Interleave, preload duration             : 500 ms
Title                                    : Audio


Visiten mi Perfil Mas de 70 Rips de metales autentico

seguirme si les gustaron las minas Seguro Que si
Nosotras seguimos a RAFADETH  porque tu no?
Van Halen Live At Tokyo Dome Japan 1989
5 Puntos Score: 5/10
Visitas: 1271 Favoritos: 1
Ver los usuarios que votaron...
6 Comentarios Van Halen Live At Tokyo Dome Japan 1989
muy bueno rafa me lo llevo gracias
puntos recargados
gracias mi pana..grande  
saludos rafin ya estas en el stat jajjaja como si eso importara, pero bueno
Muy Bueno! Gracias!
Para dejar un comentario Registrate! o.. eres ya usuario? Accede!