Airbag (banda).EnEstereo.720p

Airbag (banda).EnEstereo.720p



Una nueva entrega del programa En Estereo de canal 9, esta vez con Airbag. Realmente uno de los programas que mas me gusto, ripeado a 720p. Lamentablemente al final de video hubo un problema con al sincronizacion de auido que no pude corregir, es que la señal de canal 9 esta teniendo unos problemas de microcortes de la transmicion que son de origen y que a veces ocasionan problemas. De todos modos les recomiendo que bajen este episodio.


General
ID                                       : 1 (0x1)
Complete name                            : E:Airbag.EnEstreo.ts
Format                                   : MPEG-TS
File size                                : 736 MiB
Duration                                 : 33mn 11s
Overall bit rate mode                    : Variable
Overall bit rate                         : 3 099 Kbps

Video
ID                                       : 4097 (0x1001)
Menu ID                                  : 1 (0x1)
Format                                   : AVC
Format/Info                              : Advanced Video Codec
Format profile                           : [email protected]
Format settings, CABAC                   : Yes
Format settings, ReFrames                : 3 frames
Codec ID                                 : 27
Duration                                 : 33mn 11s
Bit rate mode                            : Constant
Bit rate                                 : 2 666 Kbps
Width                                    : 1 280 pixels
Height                                   : 720 pixels
Display aspect ratio                     : 16:9
Frame rate                               : 25.000 fps
Standard                                 : PAL
Color space                              : YUV
Chroma subsampling                       : 4:2:0
Bit depth                                : 8 bits
Scan type                                : Progressive
Bits/(Pixel*Frame)                       : 0.116
Stream size                              : 639 MiB (87%)
Color primaries                          : BT.709
Transfer characteristics                 : BT.709
Matrix coefficients                      : BT.709

Audio #1
ID                                       : 4099 (0x1003)
Menu ID                                  : 1 (0x1)
Format                                   : AAC
Format/Info                              : Advanced Audio Codec
Format version                           : Version 4
Format profile                           : LC
Muxing mode                              : ADTS
Codec ID                                 : 15
Duration                                 : 33mn 11s
Bit rate mode                            : Variable
Bit rate                                 : 126 Kbps
Minimum bit rate                         : 6 375 bps
Maximum bit rate                         : 576 Kbps
Channel(s)                               : 2 channels
Channel positions                        : Front: L R
Sampling rate                            : 48.0 KHz
Compression mode                         : Lossy
Stream size                              : 29.8 MiB (4%)

Audio #2
ID                                       : 4100 (0x1004)
Menu ID                                  : 1 (0x1)
Format                                   : AAC
Format/Info                              : Advanced Audio Codec
Format version                           : Version 4
Format profile                           : LC
Muxing mode                              : ADTS
Codec ID                                 : 15
Duration                                 : 33mn 11s
Bit rate mode                            : Variable
Bit rate                                 : 126 Kbps
Minimum bit rate                         : 6 375 bps
Maximum bit rate                         : 222 Kbps
Channel(s)                               : 2 channels
Channel positions                        : Front: L R
Sampling rate                            : 48.0 KHz
Compression mode                         : Lossy
Stream size                              : 29.8 MiB (4%)





Enlaces De Descarga
porreyxeneise
Airbag (banda).EnEstereo.720p
10 Puntos Score: 10/10
Visitas: 1756 Favoritos: 2
Ver los usuarios que votaron...
7 Comentarios Airbag (banda).EnEstereo.720p
holis, gracias por el aporte, pero tendrias que poner la lista de temas y la NFO acortala con solo resolucion y bitrate de A/V y nada mas
hola soy nueva en este blog...lo puedo descargar? me explicas c?
@lilirosa si obvio, tenes que usar el jdownloader para eso. Abrilo y despues apreta en el boton que dice "clic aqui par agregar a jdownloader". En el jdownloader te van a aparecer los links, los pones a descargar y listo.
gracias!!!!!!!!!!!!
hola tdo bien? mira me gustaria tener el audio de este programa... no podrias subir los temas q tocaron en calidad 320? para en mp3  
podrias resubir los links?
@tknobi mmm puede ser.... pero mas adelante, ahora estoy resubiendo otra serie, pero dps los resubo
Para dejar un comentario Registrate! o.. eres ya usuario? Accede!