Oops.. Este post tiene los enlaces eliminados!

Identi revisa las denuncias de los usuarios en busca de enlaces eliminados que no dejan descargar los archivos, este mensaje te informa que este post que estas viendo tiene los enlaces eliminados.

Usa el Buscador

Por favor, te recomendamos que uses el buscador para encontrar más alternativas.

Deep Purple Live Rockpalast 1985

  • Categoría: Reciclaje
  • Publicado hace más de 4 años







HOLA Y ADIOS NO TENGO GANAS DE COMENTAR AHI DESCARGEN COMENTEN Y SOBRE TODO DEJEN PUNTOS PETARDOS
General


Format                           : MPEG-4
Format profile                   : Base Media / Version 2
Codec ID                         : mp42
File size                        : 350 MiB
Duration                         : 1h 43mn
Overall bit rate                 : 473 Kbps
Encoded date                     : UTC 2012-05-22 03:44:44
Tagged date                      : UTC 2012-05-22 03:44:44
gsst                             : 0
gstd                             : 6205206
gssd                             : BBDC1BD06MH1347544708095244
                     
Video
ID                               : 1
Format                           : AVC
Format/Info                      : Advanced Video Codec
Format profile                   : [email protected]
Format settings, CABAC           : No
Format settings, ReFrames        : 1 frame
Format settings, GOP             : M=1, N=49
Codec ID                         : avc1
Codec ID/Info                    : Advanced Video Coding
Duration                         : 1h 43mn
Bit rate mode                    : Variable
Bit rate                         : 374 Kbps
Maximum bit rate                 : 1 384 Kbps
Width                            : 520 pixels
Height                           : 360 pixels
Display aspect ratio             : 1.444
Frame rate mode                  : Constant
Frame rate                       : 25.000 fps
Color space                      : YUV
Chroma subsampling               : 4:2:0
Bit depth                        : 8 bits
Scan type                        : Progressive
Bits/(Pixel*Frame)               : 0.080
Stream size                      : 277 MiB (79%)
Tagged date                      : UTC 2012-05-22 03:45:11

Audio
ID                               : 2
Format                           : AAC
Format/Info                      : Advanced Audio Codec
Format profile                   : LC
Codec ID                         : 40
Duration                         : 1h 43mn
Bit rate mode                    : Variable
Bit rate                         : 96.0 Kbps
Maximum bit rate                 : 120 Kbps
Channel(s)                       : 2 channels
Channel positions                : Front: L R
Sampling rate                    : 44.1 KHz
Compression mode                 : Lossy
Stream size                      : 71.0 MiB (20%)
Encoded date                     : UTC 2012-05-22 03:44:53
Tagged date                      : UTC 2012-05-22 03:45:11



Visiten mi Perfil Mas de 70 Rips de metales autentico








Si no te gusta el metal de toma y si Eres crapero



seguirme si les gustaron las minas Seguro Que si


y ademas si odias el crap en el Identi.


Nosotras seguimos a RAFADETH  porque tu no?y detestamos el crap

Metal en la sangre

Deep Purple Live Rockpalast 1985
15 Puntos Score: 5/10
Visitas: 853 Favoritos: 1
Ver los usuarios que votaron...
10 Comentarios Deep Purple Live Rockpalast 1985
bajandooo, terrible aporteeeee!!!      
gracias rafa por este material la epoca buena con ain gillan mi vocalista favorito de todos los de purple
mucha gracias  
buenisimo esto rafa, me encanta esta epoca, muchas gracias
Geniales tus aportes amigo! te sigo y te dejo +5   este me lo miro ma?
se cayeron los links master!!!
Cita cacha67: Mostrar
si res?
Para dejar un comentario Registrate! o.. eres ya usuario? Accede!