Morbid Angel Master of Chaos Tour 2005 Rip





HOLA Y ADIOS NO TENGO GANAS DE COMENTARIOS AHI DESCARGEN COMENTEN Y PUNTOS TODO Sobre Dejen Petardos
General

Format                           : AVI
Format/Info                      : Audio Video Interleave
File size                        : 682 MiB
Duration                         : 1h 17mn
Overall bit rate                 : 1 229 Kbps
Writing application              : MEncoder SVN-r30881(20100311-gcc4.3.3)
Writing library                  : MPlayer

Video
ID                               : 0
Format                           : MPEG-4 Visual
Format profile                   : Advanced [email protected]
Format settings, BVOP            : 2
Format settings, QPel            : No
Format settings, GMC             : No warppoints
Format settings, Matrix          : Default (H.263)
Codec ID                         : XVID
Codec ID/Hint                    : XviD
Duration                         : 1h 17mn
Bit rate                         : 1 025 Kbps
Width                            : 720 pixels
Height                           : 480 pixels
Display aspect ratio             : 3:2
Frame rate                       : 24.000 fps
Standard                         : NTSC
Color space                      : YUV
Chroma subsampling               : 4:2:0
Bit depth                        : 8 bits
Scan type                        : Progressive
Compression mode                 : Lossy
Bits/(Pixel*Frame)               : 0.124
Stream size                      : 568 MiB (83%)
Writing library                  : XviD 1.2.1 (UTC 2008-12-04)

Audio
ID                               : 1
Format                           : MPEG Audio
Format version                   : Version 1
Format profile                   : Layer 3
Mode                             : Joint stereo
Mode extension                   : MS Stereo
Codec ID                         : 55
Codec ID/Hint                    : MP3
Duration                         : 1h 17mn
Bit rate mode                    : Constant
Bit rate                         : 192 Kbps
Channel(s)                       : 2 channels
Sampling rate                    : 44.1 KHz
Compression mode                 : Lossy
Delay relative to video          : 42ms
Stream size                      : 106 MiB (16%)
Alignment                        : Aligned on interleaves
Interleave, duration             : 26 ms (0.63 video frame)
Interleave, preload duration     : 522 ms
http://www.identi.li/index.php?action=profile, user = Rafadeth

Visiten mi Perfil Mas de 70 Rips de Metales Auténtico


Si no te gusta el metal de toma y si Eres crapero
Seguirme si les gustaron las minas Seguro Que si
y ademas si odias el Identi mierda en.
Nosotras seguimos a RAFADETH  porque tu no?y detestamos el crap
Metal en la sangre

Morbid Angel Master of Chaos Tour 2005 Rip
15 Puntos Score: 7.5/10
Visitas: 1232 Favoritos: 1
Ver los usuarios que votaron...
8 Comentarios Morbid Angel Master of Chaos Tour 2005 Rip
mostroso mostroso gracias
lcumpa me pide el fichero 7 al descomprimir
no me gusta morbid angel, pero pase a tu post para que no digas que no paso ya vete a jetear Rafa  
que buen aporte muchas gracias
Sos un crack querido!!!! Que band?
mediafire muerto kuekkkk
Para dejar un comentario Registrate! o.. eres ya usuario? Accede!