Oops.. Este post tiene los enlaces eliminados!

Identi revisa las denuncias de los usuarios en busca de enlaces eliminados que no dejan descargar los archivos, este mensaje te informa que este post que estas viendo tiene los enlaces eliminados.

Usa el Buscador

Por favor, te recomendamos que uses el buscador para encontrar más alternativas.

King Diamond abigail tour

  • Categoría: Reciclaje
  • Publicado hace más de 4 años







HOLA Y ADIOS NO TENGO GANAS DE COMENTAR AHI DESCARGEN COMENTEN Y SOBRE TODO DEJEN PUNTOS PETARDOS

The Abigail Tour en Sweden 1987 Full DVD 
1. Funeral 
2. Arrival 
3. Come to the Sabbath 
4. Portrait 
5. Family Ghost 
6. 7th Day of 1777 
7. Halloween 

8. Family Ghost 
9. Welcome Home 
10. Sleepless Nights 



General

Format                           : AVI
Format/Info                      : Audio Video Interleave
File size                        : 287 MiB
Duration                         : 32mn 46s
Overall bit rate                 : 1 223 Kbps
Writing application              : MEncoder SVN-r30881(20100311-gcc4.3.3)
Writing library                  : MPlayer

Video
ID                               : 0
Format                           : MPEG-4 Visual
Format profile                   : Advanced [email protected]
Format settings, BVOP            : 2
Format settings, QPel            : No
Format settings, GMC             : No warppoints
Format settings, Matrix          : Default (H.263)
Codec ID                         : XVID
Codec ID/Hint                    : XviD
Duration                         : 32mn 46s
Bit rate                         : 1 019 Kbps
Width                            : 720 pixels
Height                           : 480 pixels
Display aspect ratio             : 3:2
Frame rate                       : 24.000 fps
Standard                         : NTSC
Color space                      : YUV
Chroma subsampling               : 4:2:0
Bit depth                        : 8 bits
Scan type                        : Progressive
Compression mode                 : Lossy
Bits/(Pixel*Frame)               : 0.123
Stream size                      : 239 MiB (83%)
Writing library                  : XviD 1.2.1 (UTC 2008-12-04)

Audio
ID                               : 1
Format                           : MPEG Audio
Format version                   : Version 1
Format profile                   : Layer 3
Mode                             : Joint stereo
Mode extension                   : MS Stereo
Codec ID                         : 55
Codec ID/Hint                    : MP3
Duration                         : 32mn 41s
Bit rate mode                    : Constant
Bit rate                         : 192 Kbps
Channel(s)                       : 2 channels
Sampling rate                    : 44.1 KHz
Compression mode                 : Lossy
Delay relative to video          : 42ms
Stream size                      : 44.9 MiB (16%)
Alignment                        : Aligned on interleaves
Interleave, duration             : 26 ms (0.63 video frame)
Interleave, preload duration     : 522 ms

videos.mp4
Format                           : MPEG-4
Format profile                   : Base Media / Version 2
Codec ID                         : mp42
File size                        : 181 MiB
Duration                         : 12mn 32s
Overall bit rate                 : 2 020 Kbps
Encoded date                     : UTC 2012-09-15 00:12:14
Tagged date                      : UTC 2012-09-15 00:12:58
Writing application              : mp4creator 1.6.1d

Video
ID                               : 1
Format                           : MPEG-4 Visual
Format profile                   : [email protected]
Format settings, BVOP            : No
Format settings, QPel            : No
Format settings, GMC             : No warppoints
Format settings, Matrix          : Default (H.263)
Codec ID                         : 20
Duration                         : 12mn 31s
Bit rate mode                    : Variable
Bit rate                         : 1 828 Kbps
Maximum bit rate                 : 5 919 Kbps
Width                            : 720 pixels
Height                           : 480 pixels
Display aspect ratio             : 3:2
Frame rate mode                  : Constant
Frame rate                       : 24.000 fps
Standard                         : NTSC
Color space                      : YUV
Chroma subsampling               : 4:2:0
Bit depth                        : 8 bits
Scan type                        : Progressive
Compression mode                 : Lossy
Bits/(Pixel*Frame)               : 0.220
Stream size                      : 164 MiB (91%)
Language                         : English
Encoded date                     : UTC 2012-09-15 00:12:14
Tagged date                      : UTC 2012-09-15 00:12:51

Audio
ID                               : 2
Format                           : AAC
Format/Info                      : Advanced Audio Codec
Format profile                   : LC
Codec ID                         : 40
Duration                         : 12mn 32s
Bit rate mode                    : Variable
Bit rate                         : 192 Kbps
Maximum bit rate                 : 324 Kbps
Channel(s)                       : 2 channels
Channel positions                : Front: L R
Sampling rate                    : 44.1 KHz
Compression mode                 : Lossy
Stream size                      : 17.0 MiB (9%)
Language                         : English
Encoded date                     : UTC 2012-09-15 00:12:54
Tagged date                      : UTC 2012-09-15 00:12:58


Visiten mi Perfil Mas de 70 Rips de metales autentico


Si no te gusta el metal toma y si eres crapero
Seguirme si les gustaron las minas seguro que si
y ademas si odias el crap en Identi.
Nosotras seguimos a RAFADETH  porque tu no?detestamos el crap
Metal en la sangre




King Diamond abigail tour
20 Puntos Score: 6.7/10
Visitas: 1183 Favoritos: 3
Ver los usuarios que votaron...
5 Comentarios King Diamond abigail tour
gracias capo a mi gusto el disco abigail fue el mejor de todos!!!!
 
excelente esta gira, amigo rafa no me das tiempo para para ver todo lo que descargo!!! muchas gracias
genial tu aporte rafa
genial excelente  
Muy Bueno @Rafadeth Muchas Gracias Por Compartirlo
Para dejar un comentario Registrate! o.. eres ya usuario? Accede!