Los super ratones.En Estereo.TDTRip.720p

Los super ratones.En Estereo.TDTRip.720p



Nueva entrega del programa En Estereo, esta vez con la Super Ratones. Ripeado y recodificado por mi.


Info
General
ID                                       : 1 (0x1)
Complete name                            : E:Superratones.EnEstereo.ts
Format                                   : MPEG-TS
File size                                : 646 MiB
Duration                                 : 29mn 7s
Overall bit rate mode                    : Variable
Overall bit rate                         : 3 099 Kbps

Video
ID                                       : 4097 (0x1001)
Menu ID                                  : 1 (0x1)
Format                                   : AVC
Format/Info                              : Advanced Video Codec
Format profile                           : [email protected]
Format settings, CABAC                   : Yes
Format settings, ReFrames                : 3 frames
Codec ID                                 : 27
Duration                                 : 29mn 7s
Bit rate mode                            : Constant
Bit rate                                 : 2 666 Kbps
Width                                    : 1 280 pixels
Height                                   : 720 pixels
Display aspect ratio                     : 16:9
Frame rate                               : 25.000 fps
Standard                                 : PAL
Color space                              : YUV
Chroma subsampling                       : 4:2:0
Bit depth                                : 8 bits
Scan type                                : Progressive
Bits/(Pixel*Frame)                       : 0.116
Stream size                              : 561 MiB (87%)
Color primaries                          : BT.709
Transfer characteristics                 : BT.709
Matrix coefficients                      : BT.709

Audio #1
ID                                       : 4099 (0x1003)
Menu ID                                  : 1 (0x1)
Format                                   : AAC
Format/Info                              : Advanced Audio Codec
Format version                           : Version 4
Format profile                           : LC
Muxing mode                              : ADTS
Codec ID                                 : 15
Duration                                 : 29mn 7s
Bit rate mode                            : Variable
Bit rate                                 : 126 Kbps
Minimum bit rate                         : 6 375 bps
Maximum bit rate                         : 387 Kbps
Channel(s)                               : 2 channels
Channel positions                        : Front: L R
Sampling rate                            : 48.0 KHz
Compression mode                         : Lossy
Stream size                              : 26.3 MiB (4%)

Audio #2
ID                                       : 4100 (0x1004)
Menu ID                                  : 1 (0x1)
Format                                   : AAC
Format/Info                              : Advanced Audio Codec
Format version                           : Version 4
Format profile                           : LC
Muxing mode                              : ADTS
Codec ID                                 : 15
Duration                                 : 29mn 7s
Bit rate mode                            : Variable
Bit rate                                 : 125 Kbps
Minimum bit rate                         : 6 375 bps
Maximum bit rate                         : 222 Kbps
Channel(s)                               : 2 channels
Channel positions                        : Front: L R
Sampling rate                            : 48.0 KHz
Compression mode                         : Lossy
Stream size                              : 26.1 MiB (4%)




Enlaces De Descarga
porreyxeneise
Los super ratones.En Estereo.TDTRip.720p
10 Puntos Score: 10/10
Visitas: 689 Favoritos: 0
Ver los usuarios que votaron...
2 Comentarios Los super ratones.En Estereo.TDTRip.720p
fuera de linea bro, porfavor, subilo de nuevo
Dios mio quien es el boludo que denuncia. No los voy a resubir aca, quiza los resuba pero en otra pagina.
Para dejar un comentario Registrate! o.. eres ya usuario? Accede!