Oops.. Este post tiene los enlaces eliminados!

Identi revisa las denuncias de los usuarios en busca de enlaces eliminados que no dejan descargar los archivos, este mensaje te informa que este post que estas viendo tiene los enlaces eliminados.

Usa el Buscador

Por favor, te recomendamos que uses el buscador para encontrar más alternativas.

King Diamond Live in Montreal Bootleg

  • Categoría: Reciclaje
  • Publicado hace más de 4 años



HOLA Y ADIOS NO TENGO GANAS DE COMENTAR AHI DESCARGEN COMENTEN Y SOBRE TODO DEJEN PUNTOS PETARDOS

General

Format                                   : AVI
Format/Info                              : Audio Video Interleave
File size                                : 579 MiB
Duration                                 : 1h 10mn
Overall bit rate                         : 1 154 Kbps
Video
ID                                       : 0
Format                                   : MPEG-4 Visual
Format settings, BVOP                    : No
Format settings, QPel                    : No
Format settings, GMC                     : No warppoints
Format settings, Matrix                  : Default (H.263)
Codec ID                                 : DX50
Codec ID/Hint                            : DivX 5
Duration                                 : 1h 10mn
Bit rate                                 : 950 Kbps
Width                                    : 720 pixels
Height                                   : 480 pixels
Display aspect ratio                     : 3:2
Frame rate                               : 29.970 fps
Standard                                 : NTSC
Color space                              : YUV
Chroma subsampling                       : 4:2:0
Bit depth                                : 8 bits
Scan type                                : Interlaced
Scan order                               : Bottom Field First
Compression mode                         : Lossy
Bits/(Pixel*Frame)                       : 0.092
Stream size                              : 477 MiB (82%)
Title                                    : Video 
Writing library                          : DivX 3013
Audio
ID                                       : 1
Format                                   : MPEG Audio
Format version                           : Version 1
Format profile                           : Layer 3
Codec ID                                 : 55
Codec ID/Hint                            : MP3
Duration                                 : 1h 10mn
Bit rate mode                            : Constant
Bit rate                                 : 192 Kbps
Channel(s)                               : 2 channels
Sampling rate                            : 44.1 KHz
Compression mode                         : Lossy
Stream size                              : 96.4 MiB (17%)
Alignment                                : Split accross interleaves
Interleave, duration                     : 33 ms (1.00 video frame)
Interleave, preload duration             : 500 ms
Title                                    : Audio 

Visiten mi Perfil Mas de 70 Rips de metales autentico





Si no te gusta el metal de toma y si Eres crapero
seguirme si les gustaron las minas Seguro Que si  
y ademas si odias mierda en el Identi.
Metal en la sangre


King Diamond Live in Montreal Bootleg
10 Puntos Score: 5/10
Visitas: 1017 Favoritos: 0
Ver los usuarios que votaron...
6 Comentarios King Diamond Live in Montreal Bootleg
este no lo tengo, buenisimo amigo rafa, muchas gracias
Buena man, lo vi en cemento con Mercyful fate, ojala se recupere del bobazo y vuelva. Saludos.
gracias mi pana...
Muchas Gracias @Rafadeth por subir Terribles Rips!!! Me vienen B?
se me habia olvidado llevarme este y dejarte puntos, ya vez que lo eliminaron una vez y se me habia olvidado que lo queria bajar, gracias rafa
Murieron los enlaces D:
Para dejar un comentario Registrate! o.. eres ya usuario? Accede!