Oops.. Este post tiene los enlaces eliminados!

Identi revisa las denuncias de los usuarios en busca de enlaces eliminados que no dejan descargar los archivos, este mensaje te informa que este post que estas viendo tiene los enlaces eliminados.

Usa el Buscador

Por favor, te recomendamos que uses el buscador para encontrar más alternativas.

King Diamond Live in Montreal Bootleg

  • Categoría: Reciclaje
  • Publicado hace más de 4 años



HOLA Y ADIOS NO TENGO GANAS DE COMENTAR AHI DESCARGEN COMENTEN Y SOBRE TODO DEJEN PUNTOS PETARDOS
General

Format                                   : AVI
Format/Info                              : Audio Video Interleave
File size                                : 579 MiB
Duration                                 : 1h 10mn
Overall bit rate                         : 1 154 Kbps
Video
ID                                       : 0
Format                                   : MPEG-4 Visual
Format settings, BVOP                    : No
Format settings, QPel                    : No
Format settings, GMC                     : No warppoints
Format settings, Matrix                  : Default (H.263)
Codec ID                                 : DX50
Codec ID/Hint                            : DivX 5
Duration                                 : 1h 10mn
Bit rate                                 : 950 Kbps
Width                                    : 720 pixels
Height                                   : 480 pixels
Display aspect ratio                     : 3:2
Frame rate                               : 29.970 fps
Standard                                 : NTSC
Color space                              : YUV
Chroma subsampling                       : 4:2:0
Bit depth                                : 8 bits
Scan type                                : Interlaced
Scan order                               : Bottom Field First
Compression mode                         : Lossy
Bits/(Pixel*Frame)                       : 0.092
Stream size                              : 477 MiB (82%)
Title                                    : Video 
Writing library                          : DivX 3013
Audio
ID                                       : 1
Format                                   : MPEG Audio
Format version                           : Version 1
Format profile                           : Layer 3
Codec ID                                 : 55
Codec ID/Hint                            : MP3
Duration                                 : 1h 10mn
Bit rate mode                            : Constant
Bit rate                                 : 192 Kbps
Channel(s)                               : 2 channels
Sampling rate                            : 44.1 KHz
Compression mode                         : Lossy
Stream size                              : 96.4 MiB (17%)
Alignment                                : Split accross interleaves
Interleave, duration                     : 33 ms (1.00 video frame)
Interleave, preload duration             : 500 ms
Title                                    : Audio 

Visiten mi Perfil Mas de 70 Rips de metales autentico





Si no te gusta el metal de toma y si Eres crapero
seguirme si les gustaron las minas Seguro Que si  
y ademas si odias mierda en el Identi.
Metal en la sangre




TODOS ESTAN INVITADOS A COMENTAR DESCARGAR Y DISFRUTAR:@cris099 @Marianoaxl @pancho20 @carlinx.av @random15 @Edelweiss@nicosnake @sexyalo32 @edgard19 @min71 @fredydarko @wyvern_rad @fak_iu@coreyvera @Chemi2077 @AngelFire @crismate @madarakiub @pancho20@DESTRUKTOR @random15  @metal3689 @Crucifyxae @wypywy @Bostera @Chuwa@madarakiub @miguemex @carlinx.av @pathaz @VINI_1 @camachf @CR07GT@tokoyo @miki_ginny @lonchin @Inicuo @sexyalo32 @zombie @Guitarist @ofdeath@ervred @alfredonap @H3rn4n @WARRIORS @lizard @edgard19 @darkmer@diegosalom @miztiko @maxpower @neofidodido @sawadypap @davidrojas@Innocence @dark72 @zhek @ezkta @razh @hades45 @jose64 @random15@changosj @granameb @Mustaine86 @BetoCZ @decapitated_pig @r6d6 @saga_666@elcuanto @estebanwarmetal @bobafett @jorgel @IMPERIOUS @ALVAREZ2 @Mael@rock_god @HYAKIMARU @killerpunk @gozrock @Valary @montiberns @JavierYnq@Logan27 @godbefa @Broker @spitaliano @malpa29 @tafarel @ezkta @DrakeN_@kenji81 @javo_091 @adolfmetal @Joshuevs @duende72 @nazareno. @Kurt_95@bravoxy @warrior57 @katogd @stratox @soda5022 @mprietoper @rodolfitof@LeoRokr @valdenegro @JGLOL @rafa020990 @joenrogri @yonko @caroraga17@rokalejandro @LOBITO1989 @kerinope @croght @lucerodj @alvarezaca @Jonymaco@chalesoy @grinderaus @Leon_Prest @Slash666 @oskidelrio @deranged @bestia87@julito_man @ChinoXMe @futboleiro @capasanhueza @claudiosan @TinchoMT09@apofis92 @cris099 @tangho @wwesodrate @Rekojz @lamas666 @fiokills @arielbojo@PiipGamers @quitodr @pacofo @nicopoli @nico_edlp @miguedeth @dantex00@manoIo12 @darktenma @dospesos @Ricotero10 @faramone19 @barulius@GEONOSIS @supernoise @Camer1 @JuanChalo0 @JFGC1292 @jovawar @percaraleo@TXUS @niandraz @Wesker5 @RooX2 @Mr05646 @ALVAREZ2 @gonzalez @christian.@cuxalop @KillEmAll2 @metalaw @Sufferage @paraguamat @NANIKY @KREATORR@JMOI2012 @vaahn @renopo @bossjanes @irronn @TroyMcClue @repubarg@heber099 @AnRu @Carlaale @kiko615 @darioe28 @luchitox @kruzliv @alvarockc1@boktzang @leydediez @koldo92 @darkpaja @Zodiaco @bluefenix @skt666 @razh@luisdav @Joshuevs @pakua @rock_god @dan5320 @r6d6 @14blackjack @F-A-C-U-@hades45 @elcuanto @fak_iu @jose64 @francocas @Byronizqui @columbia @SeRuJi0@inoue @chicoarc @Anita32 @kryz123 @Krista @elcarmen @dalmi @ENKELI@ignaciopp @wako3250 @SSaYk00 @venenorios @astorg @Ash_13 @IDAR@bakdoorman @krlhitho0o @DarkZombie @brendiux @guilleg.87 @ANUBIS79@google_fox95 @locodan @LEANDROS @Sprbelz @Rody_F @crisrock @Powerhead@slayerjair @micorio8 @fausjona @mistiko @garubo @mykyky @sion6x @superking@german @samhain @fernandoma @Gonza @ervred @scorpiorojo @federucho399@SuperStab @omarsan6 @cagv68 @caxondo_2 @contador @memo_92 @1van06@Controlerd @Demonio5 @jymlo @ragh2005 @maurrok @granameb @nickDN@perso6soft @chicoarc @mcdeymon @crespo20 @gdhisag @26negil @reggalex@ochibel @gerardolook @roclaude @jairoaaa @mazerrap @mcfly @rickyreyne @T1000@IamDseven @Ezedl 
King Diamond Live in Montreal Bootleg
10 Puntos Score: 10/10
Visitas: 579 Favoritos: 0
Ver los usuarios que votaron...
2 Comentarios King Diamond Live in Montreal Bootleg
Excelente! +10! Salve Rey Diamante!
muy buen material rafin, nunca he visto un concierto completo de king diamond, se ve bueno me lo llevo gracias sr. mini idento, por cierto amigo no checaste lo que me dijo el maxpower eb ni post amenazo a varios por hacer menciones o flood en los post por eso no lo hago ya, dijo que eso es motivo de baneo
Para dejar un comentario Registrate! o.. eres ya usuario? Accede!