Oops.. Este post tiene los enlaces eliminados!

Identi revisa las denuncias de los usuarios en busca de enlaces eliminados que no dejan descargar los archivos, este mensaje te informa que este post que estas viendo tiene los enlaces eliminados.

Usa el Buscador

Por favor, te recomendamos que uses el buscador para encontrar más alternativas.

Deep Purple Live in Montreux Rip

  • Categoría: Reciclaje
  • Publicado hace más de 4 años





HOLA Y ADIOS NO TENGO GANAS DE COMENTAR AHI DESCARGEN COMENTEN Y SOBRE TODO DEJEN PUNTOS PETARDOS

General

Format                           : MPEG-4

Format profile                   : Base Media / Version 2

Codec ID                         : mp42

File size                        : 495 MiB

Duration                         : 1h 40mn

Overall bit rate                 : 683 Kbps

Encoded date                     : UTC 2012-05-16 06:27:53

Tagged date                      : UTC 2012-05-16 06:27:53

gsst                             : 0

gstd                             : 6040903

gssd                             : BBDC1BD06HH1347547141074632


Video

ID                               : 1

Format                           : AVC

Format/Info                      : Advanced Video Codec

Format profile                   : [email protected]

Format settings, CABAC           : No

Format settings, ReFrames        : 1 frame

Format settings, GOP             : M=1, N=60

Codec ID                         : avc1

Codec ID/Info                    : Advanced Video Coding

Duration                         : 1h 40mn

Bit rate mode                    : Variable

Bit rate                         : 584 Kbps

Maximum bit rate                 : 2 178 Kbps

Width                            : 640 pixels

Height                           : 360 pixels

Display aspect ratio             : 16:9

Frame rate mode                  : Constant

Frame rate                       : 29.970 fps

Color space                      : YUV

Chroma subsampling               : 4:2:0

Bit depth                        : 8 bits

Scan type                        : Progressive

Bits/(Pixel*Frame)               : 0.085

Stream size                      : 421 MiB (86%)

Tagged date                      : UTC 2012-05-16 06:28:26


Audio

ID                               : 2

Format                           : AAC

Format/Info                      : Advanced Audio Codec

Format profile                   : LC

Codec ID                         : 40

Duration                         : 1h 40mn

Bit rate mode                    : Variable

Bit rate                         : 96.0 Kbps

Maximum bit rate                 : 118 Kbps

Channel(s)                       : 2 channels

Channel positions                : Front: L R

Sampling rate                    : 44.1 KHz

Compression mode                 : Lossy

Stream size                      : 69.1 MiB (14%)

Title                            : IsoMedia File Produced by Google, 5-11-2011

Encoded date                     : UTC 2012-05-16 06:28:16

Tagged date                      : UTC 2012-05-16 06:28:26





Visiten mi Perfil Mas de 70 Rips de metales autentico






Si no te gusta el metal de toma y si Eres crapero


seguirme si les gustaron las minas Seguro Que si  


y ademas si odias mierda en el Identi.


Nosotras seguimos a RAFADETH  porque tu no?y detestamos el crap

Metal en la sangre








Deep Purple Live in Montreux Rip
35 Puntos Score: 8.8/10
Visitas: 560 Favoritos: 1
Ver los usuarios que votaron...
10 Comentarios Deep Purple Live in Montreux Rip
que aportazo amigo muy bueno gracias!!! te sigo  
jon lord  
Gran post
excelente este aporte sr. mini idento, gracias
hey !!! grande hermano  
bien te dejo 10 muy bueno Deep,pero me gustaria que subas LIVE IN JAPAN....PODES?
Muy Bueno Muchas Gracias por Compartir Tan Buen Material @Rafadeth
Para dejar un comentario Registrate! o.. eres ya usuario? Accede!